找回密码

蓝光电影网

查看: 117|回复: 5

[REMUX.HEVC] 海底总动员 Finding.Nemo.2003.2160p.BluRay.REMUX.HEVC.TrueHD.7.1.Atmos-FGT 47.31GB

[复制链接]

 成长值: 1345

发表于 2019-9-7 19:25:55 | 显示全部楼层 |阅读模式
海底总动员 Finding.Nemo.2003.2160p.BluRay.REMUX.HEVC.TrueHD.7.1.Atmos-FGT 47.31GB-1.png

译  名 海底总动员 / Finding Nemo 3D / 寻找尼莫 / 海底奇兵 / 海底总动员3D
片  名 Finding Nemo
年  代 2003
产  地 美国 / 澳大利亚
类  别 喜剧 / 动画 / 家庭 / 冒险
语  言 英语
上映日期 2003-05-30(美国) / 2003-07-30(中国大陆) / 2012-09-14(美国)
IMDb评分  8.1/10 from 880119 users
IMDb链接  http://www.imdb.com/title/tt0266543
豆瓣评分 8.3/10 from 267476 users
豆瓣链接 https://movie.douban.com/subject/1291586/
片  长 100 分钟
导  演 安德鲁·斯坦顿 Andrew Stanton / 李·昂克里奇 Lee Unkrich
编  剧 安德鲁·斯坦顿 Andrew Stanton / 鲍勃·彼德森 Bob Peterson / 大卫·雷诺兹 David Reynolds
主  演 艾伯特·布鲁克斯 Albert Brooks
       艾伦·德杰尼勒斯 Ellen DeGeneres
       亚历山大·古尔德 Alexander Gould
       威廉·达福 Willem Dafoe
       布拉德·加内特 Brad Garrett
       艾莉森·珍妮 Allison Janney
       Austin Pendleton
       斯蒂芬·鲁特 Stephen Root
       杰弗里·拉什 Geoffrey Rush
       伊丽莎白·帕金斯 Elizabeth Perkins


标  签 动画 | 迪斯尼 | 美国 | 亲情 | 喜剧 | 经典 | 2003 | pixar

简  介  

  在澳洲大堡礁的深海中,小丑鱼爸爸玛林和儿子尼莫简单幸福的生活着,可是爸爸做事常常畏首畏尾,是个胆小鬼,尼莫觉得爸爸很不勇敢,甚至有点看不起自己的爸爸。小尼莫却天不怕地不怕,跟同伴们去水面玩耍的时候,竟然被渔网捞了起来,辗转被卖到一家牙医诊所。玛林对儿子的生死未卜感到十分的担忧,就算平时不能大胆行事,为了儿子也要勇敢豁出去了。可是在路上遇到了很多艰难与恐惧,令他十分胆怯。幸好他遇到了好心的多瑞,一路与他作伴。父子俩都遇到了很多热心的帮助,最终都能重逢,玛林也从此成为儿子以及大家心中的英雄。

获奖情况  

  第76届奥斯卡金像奖(2004)
  最佳原创剧本(提名) 安德鲁·斯坦顿
  最佳动画长片 安德鲁·斯坦顿
  最佳音效剪辑(提名) 嘉里·瑞德斯托姆 / 迈克尔·席维斯
  最佳原创配乐(提名) 托马斯·纽曼

  第61届金球奖(2004)
  电影类 最佳音乐/喜剧片(提名)

  第57届英国电影学院奖(2004)
  电影奖 最佳原创剧本(提名) 大卫·雷诺兹 / 安德鲁·斯坦顿 / 鲍勃·彼德森

  第31届动画安妮奖(2004)
  最佳动画长片
  最佳导演 安德鲁·斯坦顿 / 李·昂克里奇
  最佳编剧 大卫·雷诺兹 / 安德鲁·斯坦顿 / 鲍勃·彼德森
  最佳配音 艾伦·德杰尼勒斯
  最佳配乐 托马斯·纽曼
  最佳艺术指导 拉夫·埃格尔斯顿
  最佳动画角色 道格·斯威特兰德
  最佳动画角色(提名) Gini Santos
  最佳角色设计 Ricky Nierva
  最佳动画效果 Martin Nguyen
  最佳动画效果(提名) Martin Nguyen / Justin Paul Ritter / Justin Paul Ritter

  第4届美国电影学会奖(2003)
  年度佳片
  1. Video
  2. ID                                       : 1
  3. Format                                   : HEVC
  4. Format/Info                              : High Efficiency Video Coding
  5. Format profile                           : Main <a href="/cdn-cgi/l/email-protection" class="__cf_email__" data-cfemail="9eafaeded2abb0af">[email protected]</a>@High
  6. HDR format                               : SMPTE ST 2086, HDR10 compatible
  7. Codec ID                                 : V_MPEGH/ISO/HEVC
  8. Duration                                 : 1 h 40 min
  9. Bit rate                                 : 53.3 Mb/s
  10. Width                                    : 3 840 pixels
  11. Height                                   : 2 160 pixels
  12. Display aspect ratio                     : 16:9
  13. Frame rate mode                          : Constant
  14. Frame rate                               : 23.976 (24000/1001) FPS
  15. Color space                              : YUV
  16. Chroma subsampling                       : 4:2:0 (Type 2)
  17. Bit depth                                : 10 bits
  18. Bits/(Pixel*Frame)                       : 0.268
  19. Stream size                              : 37.6 GiB (79%)
  20. Title                                    : Finding.Nemo.2003.2160p.BluRay.REMUX.HEVC.TrueHD.7.1.Atmos-FGT
  21. Writing library                          : ATEME Titan File 3.9.0 (4.9.0.0)        
  22. Language                                 : English
  23. Default                                  : No
  24. Forced                                   : No
  25. Color range                              : Limited
  26. Color primaries                          : BT.2020
  27. Transfer characteristics                 : PQ
  28. Matrix coefficients                      : BT.2020 non-constant
  29. Mastering display color primaries        : Display P3
  30. Mastering display luminance              : min: 0.0000 cd/m2, max: 1000 cd/m2

  31. Audio #1
  32. ID                                       : 2
  33. Format                                   : MLP FBA 16-ch
  34. Format/Info                              : Meridian Lossless Packing FBA with 16-channel presentation
  35. Commercial name                          : Dolby TrueHD with Dolby Atmos
  36. Codec ID                                 : A_TRUEHD
  37. Duration                                 : 1 h 40 min
  38. Bit rate mode                            : Variable
  39. Bit rate                                 : 6 896 kb/s
  40. Maximum bit rate                         : 9 480 kb/s
  41. Channel(s)                               : 8 channels
  42. Channel layout                           : L R C LFE Ls Rs Lb Rb
  43. Sampling rate                            : 48.0 kHz
  44. Frame rate                               : 1 200.000 FPS (40 SPF)
  45. Compression mode                         : Lossless
  46. Stream size                              : 4.86 GiB (10%)
  47. Title                                    : Finding.Nemo.2003.2160p.BluRay.REMUX.HEVC.TrueHD.7.1.Atmos-FGT
  48. Language                                 : English
  49. Default                                  : Yes
  50. Forced                                   : No
  51. Number of dynamic objects                : 13
  52. Bed channel count                        : 1 channel
  53. Bed channel configuration                : LFE

  54. Audio #2
  55. ID                                       : 3
  56. Format                                   : AC-3
  57. Format/Info                              : Audio Coding 3
  58. Commercial name                          : Dolby Digital
  59. Codec ID                                 : A_AC3
  60. Duration                                 : 1 h 40 min
  61. Bit rate mode                            : Constant
  62. Bit rate                                 : 640 kb/s
  63. Channel(s)                               : 6 channels
  64. Channel layout                           : L R C LFE Ls Rs
  65. Sampling rate                            : 48.0 kHz
  66. Frame rate                               : 31.250 FPS (1536 SPF)
  67. Bit depth                                : 16 bits
  68. Compression mode                         : Lossy
  69. Stream size                              : 462 MiB (1%)
  70. Title                                    : Finding.Nemo.2003.2160p.BluRay.REMUX.HEVC.TrueHD.7.1.Atmos-FGT
  71. Language                                 : English
  72. Service kind                             : Complete Main
  73. Default                                  : No
  74. Forced                                   : No

  75. Audio #3
  76. ID                                       : 4
  77. Format                                   : E-AC-3
  78. Format/Info                              : Enhanced AC-3
  79. Commercial name                          : Dolby Digital Plus
  80. Format profile                           : Blu-ray Disc
  81. Codec ID                                 : A_EAC3
  82. Duration                                 : 1 h 40 min
  83. Bit rate mode                            : Constant
  84. Bit rate                                 : 896 kb/s
  85. Channel(s)                               : 8 channels
  86. Channel layout                           : L R C LFE Ls Rs Lb Rb
  87. Sampling rate                            : 48.0 kHz
  88. Frame rate                               : 31.250 FPS (1536 SPF)
  89. Compression mode                         : Lossy
  90. Stream size                              : 647 MiB (1%)
  91. Title                                    : Finding.Nemo.2003.2160p.BluRay.REMUX.HEVC.TrueHD.7.1.Atmos-FGT
  92. Language                                 : English
  93. Service kind                             : Complete Main
  94. Default                                  : No
  95. Forced                                   : No

  96. Audio #4
  97. ID                                       : 5
  98. Format                                   : AC-3
  99. Format/Info                              : Audio Coding 3
  100. Commercial name                          : Dolby Digital
  101. Codec ID                                 : A_AC3
  102. Duration                                 : 1 h 40 min
  103. Bit rate mode                            : Constant
  104. Bit rate                                 : 512 kb/s
  105. Channel(s)                               : 6 channels
  106. Channel layout                           : L R C LFE Ls Rs
  107. Sampling rate                            : 48.0 kHz
  108. Frame rate                               : 31.250 FPS (1536 SPF)
  109. Bit depth                                : 16 bits
  110. Compression mode                         : Lossy
  111. Stream size                              : 370 MiB (1%)
  112. Title                                    : Finding.Nemo.2003.2160p.BluRay.REMUX.HEVC.TrueHD.7.1.Atmos-FGT
  113. Language                                 : English
  114. Service kind                             : Complete Main
  115. Default                                  : No
  116. Forced                                   : No

  117. Audio #5
  118. ID                                       : 6
  119. Format                                   : AC-3
  120. Format/Info                              : Audio Coding 3
  121. Commercial name                          : Dolby Digital
  122. Codec ID                                 : A_AC3
  123. Duration                                 : 1 h 40 min
  124. Bit rate mode                            : Constant
  125. Bit rate                                 : 640 kb/s
  126. Channel(s)                               : 6 channels
  127. Channel layout                           : L R C LFE Ls Rs
  128. Sampling rate                            : 48.0 kHz
  129. Frame rate                               : 31.250 FPS (1536 SPF)
  130. Bit depth                                : 16 bits
  131. Compression mode                         : Lossy
  132. Stream size                              : 462 MiB (1%)
  133. Title                                    : Finding.Nemo.2003.2160p.BluRay.REMUX.HEVC.TrueHD.7.1.Atmos-FGT
  134. Language                                 : English
  135. Service kind                             : Complete Main
  136. Default                                  : No
  137. Forced                                   : No

  138. Audio #6
  139. ID                                       : 7
  140. Format                                   : AC-3
  141. Format/Info                              : Audio Coding 3
  142. Commercial name                          : Dolby Digital
  143. Codec ID                                 : A_AC3
  144. Duration                                 : 1 h 40 min
  145. Bit rate mode                            : Constant
  146. Bit rate                                 : 320 kb/s
  147. Channel(s)                               : 2 channels
  148. Channel layout                           : L R
  149. Sampling rate                            : 48.0 kHz
  150. Frame rate                               : 31.250 FPS (1536 SPF)
  151. Bit depth                                : 16 bits
  152. Compression mode                         : Lossy
  153. Stream size                              : 231 MiB (0%)
  154. Title                                    : Finding.Nemo.2003.2160p.BluRay.REMUX.HEVC.TrueHD.7.1.Atmos-FGT
  155. Language                                 : English
  156. Service kind                             : Complete Main
  157. Default                                  : No
  158. Forced                                   : No

  159. Audio #7
  160. ID                                       : 8
  161. Format                                   : AC-3
  162. Format/Info                              : Audio Coding 3
  163. Commercial name                          : Dolby Digital
  164. Codec ID                                 : A_AC3
  165. Duration                                 : 1 h 40 min
  166. Bit rate mode                            : Constant
  167. Bit rate                                 : 320 kb/s
  168. Channel(s)                               : 2 channels
  169. Channel layout                           : L R
  170. Sampling rate                            : 48.0 kHz
  171. Frame rate                               : 31.250 FPS (1536 SPF)
  172. Bit depth                                : 16 bits
  173. Compression mode                         : Lossy
  174. Stream size                              : 231 MiB (0%)
  175. Title                                    : Finding.Nemo.2003.2160p.BluRay.REMUX.HEVC.TrueHD.7.1.Atmos-FGT
  176. Language                                 : English
  177. Service kind                             : Complete Main
  178. Default                                  : No
  179. Forced                                   : No

  180. Audio #8
  181. ID                                       : 9
  182. Format                                   : E-AC-3
  183. Format/Info                              : Enhanced AC-3
  184. Commercial name                          : Dolby Digital Plus
  185. Format profile                           : Blu-ray Disc
  186. Codec ID                                 : A_EAC3
  187. Duration                                 : 1 h 40 min
  188. Bit rate mode                            : Constant
  189. Bit rate                                 : 896 kb/s
  190. Channel(s)                               : 8 channels
  191. Channel layout                           : L R C LFE Ls Rs Lb Rb
  192. Sampling rate                            : 48.0 kHz
  193. Frame rate                               : 31.250 FPS (1536 SPF)
  194. Compression mode                         : Lossy
  195. Stream size                              : 647 MiB (1%)
  196. Title                                    : Finding.Nemo.2003.2160p.BluRay.REMUX.HEVC.TrueHD.7.1.Atmos-FGT
  197. Language                                 : French
  198. Service kind                             : Complete Main
  199. Default                                  : No
  200. Forced                                   : No

  201. Audio #9
  202. ID                                       : 10
  203. Format                                   : AC-3
  204. Format/Info                              : Audio Coding 3
  205. Commercial name                          : Dolby Digital
  206. Codec ID                                 : A_AC3
  207. Duration                                 : 1 h 40 min
  208. Bit rate mode                            : Constant
  209. Bit rate                                 : 512 kb/s
  210. Channel(s)                               : 6 channels
  211. Channel layout                           : L R C LFE Ls Rs
  212. Sampling rate                            : 48.0 kHz
  213. Frame rate                               : 31.250 FPS (1536 SPF)
  214. Bit depth                                : 16 bits
  215. Compression mode                         : Lossy
  216. Stream size                              : 370 MiB (1%)
  217. Title                                    : Finding.Nemo.2003.2160p.BluRay.REMUX.HEVC.TrueHD.7.1.Atmos-FGT
  218. Language                                 : French
  219. Service kind                             : Complete Main
  220. Default                                  : No
  221. Forced                                   : No

  222. Audio #10
  223. ID                                       : 11
  224. Format                                   : AC-3
  225. Format/Info                              : Audio Coding 3
  226. Commercial name                          : Dolby Digital
  227. Codec ID                                 : A_AC3
  228. Duration                                 : 1 h 40 min
  229. Bit rate mode                            : Constant
  230. Bit rate                                 : 640 kb/s
  231. Channel(s)                               : 6 channels
  232. Channel layout                           : L R C LFE Ls Rs
  233. Sampling rate                            : 48.0 kHz
  234. Frame rate                               : 31.250 FPS (1536 SPF)
  235. Bit depth                                : 16 bits
  236. Compression mode                         : Lossy
  237. Stream size                              : 462 MiB (1%)
  238. Title                                    : Finding.Nemo.2003.2160p.BluRay.REMUX.HEVC.TrueHD.7.1.Atmos-FGT
  239. Language                                 : Spanish
  240. Service kind                             : Complete Main
  241. Default                                  : No
  242. Forced                                   : No

  243. Audio #11
  244. ID                                       : 12
  245. Format                                   : E-AC-3
  246. Format/Info                              : Enhanced AC-3
  247. Commercial name                          : Dolby Digital Plus
  248. Format profile                           : Blu-ray Disc
  249. Codec ID                                 : A_EAC3
  250. Duration                                 : 1 h 40 min
  251. Bit rate mode                            : Constant
  252. Bit rate                                 : 896 kb/s
  253. Channel(s)                               : 8 channels
  254. Channel layout                           : L R C LFE Ls Rs Lb Rb
  255. Sampling rate                            : 48.0 kHz
  256. Frame rate                               : 31.250 FPS (1536 SPF)
  257. Compression mode                         : Lossy
  258. Stream size                              : 647 MiB (1%)
  259. Title                                    : Finding.Nemo.2003.2160p.BluRay.REMUX.HEVC.TrueHD.7.1.Atmos-FGT
  260. Language                                 : Japanese
  261. Service kind                             : Complete Main
  262. Default                                  : No
  263. Forced                                   : No

  264. Audio #12
  265. ID                                       : 13
  266. Format                                   : AC-3
  267. Format/Info                              : Audio Coding 3
  268. Commercial name                          : Dolby Digital
  269. Codec ID                                 : A_AC3
  270. Duration                                 : 1 h 40 min
  271. Bit rate mode                            : Constant
  272. Bit rate                                 : 512 kb/s
  273. Channel(s)                               : 6 channels
  274. Channel layout                           : L R C LFE Ls Rs
  275. Sampling rate                            : 48.0 kHz
  276. Frame rate                               : 31.250 FPS (1536 SPF)
  277. Bit depth                                : 16 bits
  278. Compression mode                         : Lossy
  279. Stream size                              : 370 MiB (1%)
  280. Title                                    : Finding.Nemo.2003.2160p.BluRay.REMUX.HEVC.TrueHD.7.1.Atmos-FGT
  281. Language                                 : Japanese
  282. Service kind                             : Complete Main
  283. Default                                  : No
  284. Forced                                   : No

  285. Text #1
  286. ID                                       : 14
  287. Format                                   : UTF-8
  288. Codec ID                                 : S_TEXT/UTF8
  289. Codec ID/Info                            : UTF-8 Plain Text
  290. Duration                                 : 1 h 32 min
  291. Bit rate                                 : 69 b/s
  292. Count of elements                        : 1521
  293. Stream size                              : 47.2 KiB (0%)
  294. Title                                    : English-SRT
  295. Language                                 : English
  296. Default                                  : Yes
  297. Forced                                   : No

  298. Text #2
  299. ID                                       : 15
  300. Format                                   : PGS
  301. Muxing mode                              : zlib
  302. Codec ID                                 : S_HDMV/PGS
  303. Codec ID/Info                            : Picture based subtitle format used on BDs/HD-DVDs
  304. Duration                                 : 1 h 32 min
  305. Bit rate                                 : 44.8 kb/s
  306. Count of elements                        : 3150
  307. Stream size                              : 29.7 MiB (0%)
  308. Title                                    : English-PGS
  309. Language                                 : English
  310. Default                                  : No
  311. Forced                                   : No

  312. Text #3
  313. ID                                       : 16
  314. Format                                   : PGS
  315. Muxing mode                              : zlib
  316. Codec ID                                 : S_HDMV/PGS
  317. Codec ID/Info                            : Picture based subtitle format used on BDs/HD-DVDs
  318. Duration                                 : 1 h 32 min
  319. Bit rate                                 : 46.6 kb/s
  320. Count of elements                        : 3272
  321. Stream size                              : 30.9 MiB (0%)
  322. Title                                    : French-PGS
  323. Language                                 : French
  324. Default                                  : No
  325. Forced                                   : No

  326. Text #4
  327. ID                                       : 17
  328. Format                                   : PGS
  329. Muxing mode                              : zlib
  330. Codec ID                                 : S_HDMV/PGS
  331. Codec ID/Info                            : Picture based subtitle format used on BDs/HD-DVDs
  332. Duration                                 : 1 h 32 min
  333. Bit rate                                 : 41.9 kb/s
  334. Count of elements                        : 3070
  335. Stream size                              : 27.7 MiB (0%)
  336. Title                                    : Spanish-PGS
  337. Language                                 : Spanish
  338. Default                                  : No
  339. Forced                                   : No

  340. Text #5
  341. ID                                       : 18
  342. Format                                   : PGS
  343. Muxing mode                              : zlib
  344. Codec ID                                 : S_HDMV/PGS
  345. Codec ID/Info                            : Picture based subtitle format used on BDs/HD-DVDs
  346. Duration                                 : 1 h 32 min
  347. Bit rate                                 : 30.4 kb/s
  348. Count of elements                        : 3064
  349. Stream size                              : 20.1 MiB (0%)
  350. Title                                    : Japanese-PGS
  351. Language                                 : Japanese
  352. Default                                  : No
  353. Forced                                   : No

  354. Menu
  355. 00:00:00.000                             : en:Chapter 01
  356. 00:04:18.716                             : en:Chapter 02
  357. 00:05:35.668                             : en:Chapter 03
  358. 00:11:17.802                             : en:Chapter 04
  359. 00:12:16.235                             : en:Chapter 05
  360. 00:14:08.556                             : en:Chapter 06
  361. 00:16:29.029                             : en:Chapter 07
  362. 00:18:50.337                             : en:Chapter 08
  363. 00:25:31.780                             : en:Chapter 09
  364. 00:30:54.227                             : en:Chapter 10
  365. 00:33:01.646                             : en:Chapter 11
  366. 00:36:11.836                             : en:Chapter 12
  367. 00:40:19.166                             : en:Chapter 13
  368. 00:44:58.278                             : en:Chapter 14
  369. 00:48:12.180                             : en:Chapter 15
  370. 00:51:28.418                             : en:Chapter 16
  371. 00:56:07.030                             : en:Chapter 17
  372. 01:00:55.610                             : en:Chapter 18
  373. 01:05:20.666                             : en:Chapter 19
  374. 01:07:02.101                             : en:Chapter 20
  375. 01:08:30.147                             : en:Chapter 21
  376. 01:13:19.103                             : en:Chapter 22
  377. 01:14:15.117                             : en:Chapter 23
  378. 01:16:00.097                             : en:Chapter 24
  379. 01:18:41.299                             : en:Chapter 25
  380. 01:21:57.621                             : en:Chapter 26
  381. 01:24:29.481                             : en:Chapter 27
  382. 01:26:54.334                             : en:Chapter 28
  383. 01:29:26.611                             : en:Chapter 29
  384. 01:30:51.362                             : en:Chapter 30
  385. 01:32:42.932                             : en:Chapter 31
  386. 01:33:24.265                             : en:Chapter 32
复制代码

海底总动员 Finding.Nemo.2003.2160p.BluRay.REMUX.HEVC.TrueHD.7.1.Atmos-FGT 47.31GB-2.png 海底总动员 Finding.Nemo.2003.2160p.BluRay.REMUX.HEVC.TrueHD.7.1.Atmos-FGT 47.31GB-3.png 海底总动员 Finding.Nemo.2003.2160p.BluRay.REMUX.HEVC.TrueHD.7.1.Atmos-FGT 47.31GB-4.png






开通VIP免费下载本站所有资源---点这里
新手必看:资源下载、资源播放、字幕使用、等常见问题---点这里
回复

使用道具 举报

发表于 2019-9-8 00:13:22 | 显示全部楼层
一部不错的励志动画片,值得收藏.
开通VIP免费下载本站所有资源---点这里
新手必看:资源下载、资源播放、字幕使用、等常见问题---点这里
回复 支持 反对

使用道具 举报

发表于 2019-9-8 14:01:45 | 显示全部楼层
谢谢楼主无私辛苦分享
开通VIP免费下载本站所有资源---点这里
新手必看:资源下载、资源播放、字幕使用、等常见问题---点这里
回复 支持 反对

使用道具 举报

发表于 2019-9-8 19:09:00 | 显示全部楼层
谢谢发片。
开通VIP免费下载本站所有资源---点这里
新手必看:资源下载、资源播放、字幕使用、等常见问题---点这里
回复

使用道具 举报

发表于 7 天前 | 显示全部楼层

既然你诚信诚意的推荐了,那我就勉为其难的看看吧!蓝光电影网不走平凡路。
开通VIP免费下载本站所有资源---点这里
新手必看:资源下载、资源播放、字幕使用、等常见问题---点这里
回复 支持 反对

使用道具 举报

 成长值: 380

发表于 7 天前 | 显示全部楼层
谢谢楼主无私分享。
开通VIP免费下载本站所有资源---点这里
新手必看:资源下载、资源播放、字幕使用、等常见问题---点这里
回复 支持 反对

使用道具 举报

懒得打字嘛,点击右侧快捷回复 【右侧内容,后台自定义】
您需要登录后才可以回帖 登录 | 立即加入

本版积分规则

现在加入蓝光电影网,注册一个账号

QQ| 手机版|小黑屋| 蓝光电影网 |网站地图

Copyright © 2015-2019 Comsenz Inc.  Template by 蓝光电影网 All Rights Reserved.

Powered by 蓝光电影网 X3.4

特别声明:本站所有资源均由网上收集而来,版权归原影音公司所有,如果侵犯了你的权益,请通知我们,我们会及时删除侵权内容.

快速回复 返回顶部 返回列表