找回密码

蓝光电影网

查看: 114|回复: 3

[REMUX.HEVC] 热血警探 Hot.Fuzz.2007.2160p.BluRay.REMUX.HEVC.DTS-X.7.1-FGT 53.04GB

[复制链接]

 成长值: 1345

发表于 2019-9-7 19:24:53 | 显示全部楼层 |阅读模式
热血警探 Hot.Fuzz.2007.2160p.BluRay.REMUX.HEVC.DTS-X.7.1-FGT 53.04GB-1.png

译  名 热血警探 / Blue Fury / Bubblin' Fizz / Dead Right / Feelin' Fuzzier / Raging Fuzz / 热血条子 / 硬派条子 / 硬派雷子 / 终棘警探
片  名 Hot Fuzz
年  代 2007
产  地 美国 / 法国 / 英国
类  别 喜剧 / 动作
语  言 英语
上映日期 2007-02-14(英国)
IMDb评分  7.8/10 from 430933 users
IMDb链接  http://www.imdb.com/title/tt0425112
豆瓣评分 8.3/10 from 110514 users
豆瓣链接 https://movie.douban.com/subject/1806555/
片  长 121分钟
导  演 埃德加·赖特 Edgar Wright
编  剧 埃德加·赖特 Edgar Wright / 西蒙·佩吉 Simon Pegg
主  演 西蒙·佩吉 Simon Pegg
       尼克·弗罗斯特 Nick Frost
       马丁·弗瑞曼 Martin Freeman
       比尔·奈伊 Bill Nighy
       提摩西·道尔顿 Timothy Dalton
       吉姆·布劳德本特 Jim Broadbent
       Robert Popper
       乔·考尼什 Joe Cornish
       Chris Waitt
       比莉·怀特劳 Billie Whitelaw
       彼得·怀特 Peter Wight
       朱丽亚·迪金 Julia Deakin
       比尔·贝利 Bill Bailey
       保罗·弗里曼 Paul Freeman
       伊丽莎白·埃尔文 Elizabeth Elvin
       斯图亚特·维尔森 Stuart Wilson
       帕迪·康斯戴恩 Paddy Considine
       拉菲·斯波 Rafe Spall
       凯文·埃尔登 Kevin Eldon
       卡尔·约翰逊 Karl Johnson
       Sampson
       奥利维娅·科尔曼 Olivia Colman
       爱德华·伍德华德 Edward Woodward
       安妮·雷德 Anne Reid
       肯尼思·库兰汉姆 Kenneth Cranham
       亚当·布克斯顿 Adam Buxton
       斯戴芬·莫昌特 Stephen Merchant
       蒂姆·巴洛 Tim Barlow
       罗伊·麦克凯恩 Rory McCann
       爱丽丝·洛维 Alice Lowe
       罗恩·库克 Ron Cook
       大卫·斯瑞弗 David Threlfall
       露茜·彭奇 Lucy Punch
       大卫·布拉德利 David Bradley
       Maria Charles
       凯特·布兰切特 Cate Blanchett
       史蒂夫·库根 Steve Coogan
       大卫·威廉·詹姆斯·埃利奥特 David William James Elliott
       彼得·杰克逊 Peter Jackson
       加斯·詹宁斯 Garth Jennings
       约瑟夫·麦克曼纳斯 Joseph McManners
       Joel Stubbs
       埃德加·赖特 Edgar Wright


标  签 黑色幽默 | 英国 | 喜剧 | 动作 | 警匪 | 英国电影 | SimonPegg | 2007

简  介  

  尼古拉斯?安奇尔(西蒙?佩吉Simon Pegg 饰)在伦敦担任高级巡警,抓贼破案似乎是他最大的乐趣。为此他成为警局中最敬业最能干的警员。但这却招致了警长的妒嫉,可怜的尼古拉斯被调至一个偏僻平静的小镇当警察。
  小镇已经几十年没有过恶性犯罪事件。尼古拉斯在那里过得相当郁闷 ,他觉得自己的擒贼本领没有施展空间。更令他烦恼的是,镇里警察局局长儿子丹尼?巴特曼(尼克?弗罗斯特 Nick Frost 饰)也来凑热闹,成为他的搭档。这个新搭档麻烦至极,整天询问大城市的警员经历。正在尼古拉斯烦心于镇里鸡毛蒜皮的事务和身边的苯搭档时,镇里却发生了一桩案件,让尼古拉斯嗅到了大展拳脚的机会,惊心动魄的战役开始了。
  1. Video
  2. ID                                       : 1
  3. Format                                   : HEVC
  4. Format/Info                              : High Efficiency Video Coding
  5. Format profile                           : Main <a href="/cdn-cgi/l/email-protection" class="__cf_email__" data-cfemail="2b1a1b6b671e051a">[email protected]</a>@High
  6. HDR format                               : SMPTE ST 2094 App 4, Version 1, HDR10+ Profile B compatible
  7. Codec ID                                 : V_MPEGH/ISO/HEVC
  8. Duration                                 : 2 h 0 min
  9. Bit rate                                 : 52.6 Mb/s
  10. Width                                    : 3 840 pixels
  11. Height                                   : 2 160 pixels
  12. Display aspect ratio                     : 16:9
  13. Frame rate mode                          : Constant
  14. Frame rate                               : 23.976 (24000/1001) FPS
  15. Color space                              : YUV
  16. Chroma subsampling                       : 4:2:0 (Type 2)
  17. Bit depth                                : 10 bits
  18. Bits/(Pixel*Frame)                       : 0.265
  19. Stream size                              : 44.4 GiB (84%)
  20. Title                                    : Hot.Fuzz.2007.2160p.BluRay.REMUX.HEVC.DTS-X.7.1-FGT
  21. Writing library                          : ATEME Titan File 3.9.0 (4.9.0.0)        
  22. Language                                 : English
  23. Default                                  : No
  24. Forced                                   : No
  25. Color range                              : Limited
  26. Color primaries                          : BT.2020
  27. Transfer characteristics                 : PQ
  28. Matrix coefficients                      : BT.2020 non-constant
  29. Mastering display color primaries        : Display P3
  30. Mastering display luminance              : min: 0.0050 cd/m2, max: 1000 cd/m2
  31. Maximum Content Light Level              : 960 cd/m2
  32. Maximum Frame-Average Light Level        : 336 cd/m2

  33. Audio #1
  34. ID                                       : 2
  35. Format                                   : DTS XLL X
  36. Format/Info                              : Digital Theater Systems
  37. Commercial name                          : DTS-HD Master Audio
  38. Codec ID                                 : A_DTS
  39. Duration                                 : 2 h 0 min
  40. Bit rate mode                            : Variable
  41. Bit rate                                 : 5 998 kb/s
  42. Channel(s)                               : 8 channels
  43. Channel(s)_Original                      : Object Based
  44. Channel layout                           : Object Based
  45. Sampling rate                            : 48.0 kHz
  46. Frame rate                               : 93.750 FPS (512 SPF)
  47. Bit depth                                : 24 bits
  48. Stream size                              : 5.06 GiB (10%)
  49. Title                                    : Hot.Fuzz.2007.2160p.BluRay.REMUX.HEVC.DTS-X.7.1-FGT
  50. Language                                 : English
  51. Default                                  : Yes
  52. Forced                                   : No

  53. Audio #2
  54. ID                                       : 3
  55. Format                                   : DTS
  56. Format/Info                              : Digital Theater Systems
  57. Codec ID                                 : A_DTS
  58. Duration                                 : 2 h 0 min
  59. Bit rate mode                            : Constant
  60. Bit rate                                 : 768 kb/s
  61. Channel(s)                               : 6 channels
  62. Channel layout                           : C L R Ls Rs LFE
  63. Sampling rate                            : 48.0 kHz
  64. Frame rate                               : 93.750 FPS (512 SPF)
  65. Bit depth                                : 24 bits
  66. Compression mode                         : Lossy
  67. Stream size                              : 664 MiB (1%)
  68. Title                                    : Hot.Fuzz.2007.2160p.BluRay.REMUX.HEVC.DTS-X.7.1-FGT
  69. Language                                 : French
  70. Default                                  : No
  71. Forced                                   : No

  72. Audio #3
  73. ID                                       : 4
  74. Format                                   : DTS
  75. Format/Info                              : Digital Theater Systems
  76. Codec ID                                 : A_DTS
  77. Duration                                 : 2 h 0 min
  78. Bit rate mode                            : Constant
  79. Bit rate                                 : 768 kb/s
  80. Channel(s)                               : 6 channels
  81. Channel layout                           : C L R Ls Rs LFE
  82. Sampling rate                            : 48.0 kHz
  83. Frame rate                               : 93.750 FPS (512 SPF)
  84. Bit depth                                : 24 bits
  85. Compression mode                         : Lossy
  86. Stream size                              : 664 MiB (1%)
  87. Title                                    : Hot.Fuzz.2007.2160p.BluRay.REMUX.HEVC.DTS-X.7.1-FGT
  88. Language                                 : Spanish
  89. Default                                  : No
  90. Forced                                   : No

  91. Audio #4
  92. ID                                       : 5
  93. Format                                   : DTS
  94. Format/Info                              : Digital Theater Systems
  95. Codec ID                                 : A_DTS
  96. Duration                                 : 2 h 0 min
  97. Bit rate mode                            : Constant
  98. Bit rate                                 : 768 kb/s
  99. Channel(s)                               : 6 channels
  100. Channel layout                           : C L R Ls Rs LFE
  101. Sampling rate                            : 48.0 kHz
  102. Frame rate                               : 93.750 FPS (512 SPF)
  103. Bit depth                                : 24 bits
  104. Compression mode                         : Lossy
  105. Stream size                              : 664 MiB (1%)
  106. Title                                    : Hot.Fuzz.2007.2160p.BluRay.REMUX.HEVC.DTS-X.7.1-FGT
  107. Language                                 : Japanese
  108. Default                                  : No
  109. Forced                                   : No

  110. Audio #5
  111. ID                                       : 6
  112. Format                                   : DTS
  113. Format/Info                              : Digital Theater Systems
  114. Codec ID                                 : A_DTS
  115. Duration                                 : 2 h 0 min
  116. Bit rate mode                            : Constant
  117. Bit rate                                 : 768 kb/s
  118. Channel(s)                               : 6 channels
  119. Channel layout                           : C L R Ls Rs LFE
  120. Sampling rate                            : 48.0 kHz
  121. Frame rate                               : 93.750 FPS (512 SPF)
  122. Bit depth                                : 24 bits
  123. Compression mode                         : Lossy
  124. Stream size                              : 664 MiB (1%)
  125. Title                                    : Hot.Fuzz.2007.2160p.BluRay.REMUX.HEVC.DTS-X.7.1-FGT
  126. Language                                 : Portuguese
  127. Default                                  : No
  128. Forced                                   : No

  129. Audio #6
  130. ID                                       : 7
  131. Format                                   : AC-3
  132. Format/Info                              : Audio Coding 3
  133. Commercial name                          : Dolby Digital
  134. Codec ID                                 : A_AC3
  135. Duration                                 : 2 h 0 min
  136. Bit rate mode                            : Constant
  137. Bit rate                                 : 192 kb/s
  138. Channel(s)                               : 2 channels
  139. Channel layout                           : L R
  140. Sampling rate                            : 48.0 kHz
  141. Frame rate                               : 31.250 FPS (1536 SPF)
  142. Bit depth                                : 16 bits
  143. Compression mode                         : Lossy
  144. Stream size                              : 166 MiB (0%)
  145. Title                                    : Hot.Fuzz.2007.2160p.BluRay.REMUX.HEVC.DTS-X.7.1-FGT
  146. Language                                 : English
  147. Service kind                             : Complete Main
  148. Default                                  : No
  149. Forced                                   : No

  150. Audio #7
  151. ID                                       : 8
  152. Format                                   : AC-3
  153. Format/Info                              : Audio Coding 3
  154. Commercial name                          : Dolby Digital
  155. Codec ID                                 : A_AC3
  156. Duration                                 : 2 h 0 min
  157. Bit rate mode                            : Constant
  158. Bit rate                                 : 192 kb/s
  159. Channel(s)                               : 2 channels
  160. Channel layout                           : L R
  161. Sampling rate                            : 48.0 kHz
  162. Frame rate                               : 31.250 FPS (1536 SPF)
  163. Bit depth                                : 16 bits
  164. Compression mode                         : Lossy
  165. Stream size                              : 166 MiB (0%)
  166. Title                                    : Hot.Fuzz.2007.2160p.BluRay.REMUX.HEVC.DTS-X.7.1-FGT
  167. Language                                 : English
  168. Service kind                             : Complete Main
  169. Default                                  : No
  170. Forced                                   : No

  171. Audio #8
  172. ID                                       : 9
  173. Format                                   : AC-3
  174. Format/Info                              : Audio Coding 3
  175. Commercial name                          : Dolby Digital
  176. Codec ID                                 : A_AC3
  177. Duration                                 : 2 h 0 min
  178. Bit rate mode                            : Constant
  179. Bit rate                                 : 192 kb/s
  180. Channel(s)                               : 2 channels
  181. Channel layout                           : L R
  182. Sampling rate                            : 48.0 kHz
  183. Frame rate                               : 31.250 FPS (1536 SPF)
  184. Bit depth                                : 16 bits
  185. Compression mode                         : Lossy
  186. Stream size                              : 166 MiB (0%)
  187. Title                                    : Hot.Fuzz.2007.2160p.BluRay.REMUX.HEVC.DTS-X.7.1-FGT
  188. Language                                 : English
  189. Service kind                             : Complete Main
  190. Default                                  : No
  191. Forced                                   : No

  192. Audio #9
  193. ID                                       : 10
  194. Format                                   : AC-3
  195. Format/Info                              : Audio Coding 3
  196. Commercial name                          : Dolby Digital
  197. Codec ID                                 : A_AC3
  198. Duration                                 : 2 h 0 min
  199. Bit rate mode                            : Constant
  200. Bit rate                                 : 192 kb/s
  201. Channel(s)                               : 2 channels
  202. Channel layout                           : L R
  203. Sampling rate                            : 48.0 kHz
  204. Frame rate                               : 31.250 FPS (1536 SPF)
  205. Bit depth                                : 16 bits
  206. Compression mode                         : Lossy
  207. Stream size                              : 166 MiB (0%)
  208. Title                                    : Hot.Fuzz.2007.2160p.BluRay.REMUX.HEVC.DTS-X.7.1-FGT
  209. Language                                 : English
  210. Service kind                             : Complete Main
  211. Default                                  : No
  212. Forced                                   : No

  213. Audio #10
  214. ID                                       : 11
  215. Format                                   : AC-3
  216. Format/Info                              : Audio Coding 3
  217. Commercial name                          : Dolby Digital
  218. Codec ID                                 : A_AC3
  219. Duration                                 : 2 h 0 min
  220. Bit rate mode                            : Constant
  221. Bit rate                                 : 192 kb/s
  222. Channel(s)                               : 2 channels
  223. Channel layout                           : L R
  224. Sampling rate                            : 48.0 kHz
  225. Frame rate                               : 31.250 FPS (1536 SPF)
  226. Bit depth                                : 16 bits
  227. Compression mode                         : Lossy
  228. Stream size                              : 166 MiB (0%)
  229. Title                                    : Hot.Fuzz.2007.2160p.BluRay.REMUX.HEVC.DTS-X.7.1-FGT
  230. Language                                 : English
  231. Service kind                             : Complete Main
  232. Default                                  : No
  233. Forced                                   : No

  234. Text #1
  235. ID                                       : 12
  236. Format                                   : UTF-8
  237. Codec ID                                 : S_TEXT/UTF8
  238. Codec ID/Info                            : UTF-8 Plain Text
  239. Duration                                 : 1 h 54 min
  240. Bit rate                                 : 71 b/s
  241. Count of elements                        : 1867
  242. Stream size                              : 59.7 KiB (0%)
  243. Title                                    : English-SRT
  244. Default                                  : Yes
  245. Forced                                   : No

  246. Text #2
  247. ID                                       : 13
  248. Format                                   : PGS
  249. Muxing mode                              : zlib
  250. Codec ID                                 : S_HDMV/PGS
  251. Codec ID/Info                            : Picture based subtitle format used on BDs/HD-DVDs
  252. Duration                                 : 1 h 55 min
  253. Bit rate                                 : 49.2 kb/s
  254. Count of elements                        : 4062
  255. Stream size                              : 40.5 MiB (0%)
  256. Title                                    : English-PGS
  257. Language                                 : English
  258. Default                                  : No
  259. Forced                                   : No

  260. Text #3
  261. ID                                       : 14
  262. Format                                   : PGS
  263. Muxing mode                              : zlib
  264. Codec ID                                 : S_HDMV/PGS
  265. Codec ID/Info                            : Picture based subtitle format used on BDs/HD-DVDs
  266. Duration                                 : 1 h 59 min
  267. Bit rate                                 : 32.7 kb/s
  268. Count of elements                        : 2876
  269. Stream size                              : 28.0 MiB (0%)
  270. Title                                    : French-PGS
  271. Language                                 : French
  272. Default                                  : No
  273. Forced                                   : No

  274. Text #4
  275. ID                                       : 15
  276. Format                                   : PGS
  277. Muxing mode                              : zlib
  278. Codec ID                                 : S_HDMV/PGS
  279. Codec ID/Info                            : Picture based subtitle format used on BDs/HD-DVDs
  280. Duration                                 : 1 h 59 min
  281. Bit rate                                 : 41.7 kb/s
  282. Count of elements                        : 3110
  283. Stream size                              : 35.7 MiB (0%)
  284. Title                                    : Spanish-PGS
  285. Language                                 : Spanish
  286. Default                                  : No
  287. Forced                                   : No

  288. Text #5
  289. ID                                       : 16
  290. Format                                   : PGS
  291. Muxing mode                              : zlib
  292. Codec ID                                 : S_HDMV/PGS
  293. Codec ID/Info                            : Picture based subtitle format used on BDs/HD-DVDs
  294. Duration                                 : 1 h 54 min
  295. Bit rate                                 : 29.5 kb/s
  296. Count of elements                        : 3276
  297. Stream size                              : 24.1 MiB (0%)
  298. Title                                    : Japanese-PGS
  299. Language                                 : Japanese
  300. Default                                  : No
  301. Forced                                   : No

  302. Text #6
  303. ID                                       : 17
  304. Format                                   : PGS
  305. Muxing mode                              : zlib
  306. Codec ID                                 : S_HDMV/PGS
  307. Codec ID/Info                            : Picture based subtitle format used on BDs/HD-DVDs
  308. Duration                                 : 1 h 59 min
  309. Bit rate                                 : 41.2 kb/s
  310. Count of elements                        : 3112
  311. Stream size                              : 35.3 MiB (0%)
  312. Title                                    : Portuguese-PGS
  313. Language                                 : Portuguese
  314. Default                                  : No
  315. Forced                                   : No

  316. Text #7
  317. ID                                       : 18
  318. Format                                   : PGS
  319. Muxing mode                              : zlib
  320. Codec ID                                 : S_HDMV/PGS
  321. Codec ID/Info                            : Picture based subtitle format used on BDs/HD-DVDs
  322. Duration                                 : 2 h 0 min
  323. Bit rate                                 : 89.1 kb/s
  324. Count of elements                        : 5189
  325. Stream size                              : 77.0 MiB (0%)
  326. Title                                    : English-COMMENTARY-PGS
  327. Language                                 : English
  328. Default                                  : No
  329. Forced                                   : No

  330. Text #8
  331. ID                                       : 19
  332. Format                                   : PGS
  333. Muxing mode                              : zlib
  334. Codec ID                                 : S_HDMV/PGS
  335. Codec ID/Info                            : Picture based subtitle format used on BDs/HD-DVDs
  336. Duration                                 : 1 h 56 min
  337. Bit rate                                 : 82.0 kb/s
  338. Count of elements                        : 5323
  339. Stream size                              : 68.2 MiB (0%)
  340. Title                                    : English-COMMENTARY-PGS
  341. Language                                 : English
  342. Default                                  : No
  343. Forced                                   : No

  344. Text #9
  345. ID                                       : 20
  346. Format                                   : PGS
  347. Muxing mode                              : zlib
  348. Codec ID                                 : S_HDMV/PGS
  349. Codec ID/Info                            : Picture based subtitle format used on BDs/HD-DVDs
  350. Duration                                 : 2 h 0 min
  351. Bit rate                                 : 88.3 kb/s
  352. Count of elements                        : 4515
  353. Stream size                              : 76.3 MiB (0%)
  354. Title                                    : English-COMMENTARY-PGS
  355. Language                                 : English
  356. Default                                  : No
  357. Forced                                   : No

  358. Text #10
  359. ID                                       : 21
  360. Format                                   : PGS
  361. Muxing mode                              : zlib
  362. Codec ID                                 : S_HDMV/PGS
  363. Codec ID/Info                            : Picture based subtitle format used on BDs/HD-DVDs
  364. Duration                                 : 1 h 55 min
  365. Bit rate                                 : 75.4 kb/s
  366. Count of elements                        : 4590
  367. Stream size                              : 62.3 MiB (0%)
  368. Title                                    : English-COMMENTARY-PGS
  369. Language                                 : English
  370. Default                                  : No
  371. Forced                                   : No

  372. Text #11
  373. ID                                       : 22
  374. Format                                   : PGS
  375. Muxing mode                              : zlib
  376. Codec ID                                 : S_HDMV/PGS
  377. Codec ID/Info                            : Picture based subtitle format used on BDs/HD-DVDs
  378. Duration                                 : 2 h 0 min
  379. Bit rate                                 : 76.0 kb/s
  380. Count of elements                        : 4667
  381. Stream size                              : 65.6 MiB (0%)
  382. Title                                    : English-COMMENTARY-PGS
  383. Language                                 : English
  384. Default                                  : No
  385. Forced                                   : No

  386. Text #12
  387. ID                                       : 23
  388. Format                                   : PGS
  389. Muxing mode                              : zlib
  390. Codec ID                                 : S_HDMV/PGS
  391. Codec ID/Info                            : Picture based subtitle format used on BDs/HD-DVDs
  392. Duration                                 : 1 h 59 min
  393. Bit rate                                 : 494 b/s
  394. Count of elements                        : 42
  395. Stream size                              : 431 KiB (0%)
  396. Title                                    : Spanish-FORCED-PGS
  397. Language                                 : Spanish
  398. Default                                  : No
  399. Forced                                   : No

  400. Text #13
  401. ID                                       : 24
  402. Format                                   : PGS
  403. Muxing mode                              : zlib
  404. Codec ID                                 : S_HDMV/PGS
  405. Codec ID/Info                            : Picture based subtitle format used on BDs/HD-DVDs
  406. Duration                                 : 1 h 49 min
  407. Bit rate                                 : 640 b/s
  408. Count of elements                        : 72
  409. Stream size                              : 514 KiB (0%)
  410. Title                                    : Japanese-FORCED-PGS
  411. Language                                 : Japanese
  412. Default                                  : No
  413. Forced                                   : No

  414. Text #14
  415. ID                                       : 25
  416. Format                                   : PGS
  417. Muxing mode                              : zlib
  418. Codec ID                                 : S_HDMV/PGS
  419. Codec ID/Info                            : Picture based subtitle format used on BDs/HD-DVDs
  420. Duration                                 : 1 h 59 min
  421. Bit rate                                 : 495 b/s
  422. Count of elements                        : 42
  423. Stream size                              : 432 KiB (0%)
  424. Title                                    : Portuguese-FORCED-PGS
  425. Language                                 : Portuguese
  426. Default                                  : No
  427. Forced                                   : No

  428. Menu
  429. 00:00:00.000                             : en:Chapter 01
  430. 00:02:25.937                             : en:Chapter 02
  431. 00:05:23.197                             : en:Chapter 03
  432. 00:07:15.435                             : en:Chapter 04
  433. 00:12:09.770                             : en:Chapter 05
  434. 00:14:07.304                             : en:Chapter 06
  435. 00:21:38.964                             : en:Chapter 07
  436. 00:25:47.587                             : en:Chapter 08
  437. 00:28:46.349                             : en:Chapter 09
  438. 00:32:08.217                             : en:Chapter 10
  439. 00:35:27.416                             : en:Chapter 11
  440. 00:39:07.636                             : en:Chapter 12
  441. 00:42:11.862                             : en:Chapter 13
  442. 00:44:55.651                             : en:Chapter 14
  443. 00:49:26.630                             : en:Chapter 15
  444. 00:54:58.295                             : en:Chapter 16
  445. 01:01:44.951                             : en:Chapter 17
  446. 01:09:24.285                             : en:Chapter 18
  447. 01:16:58.572                             : en:Chapter 19
  448. 01:19:14.791                             : en:Chapter 20
  449. 01:28:59.208                             : en:Chapter 21
  450. 01:31:40.119                             : en:Chapter 22
  451. 01:41:13.525                             : en:Chapter 23
  452. 01:45:30.407                             : en:Chapter 24
  453. 01:50:49.017                             : en:Chapter 25
  454. 01:52:01.840                             : en:Chapter 26
  455. 01:53:54.410                             : en:Chapter 27
  456. 01:55:14.449                             : en:Chapter 28
复制代码

热血警探 Hot.Fuzz.2007.2160p.BluRay.REMUX.HEVC.DTS-X.7.1-FGT 53.04GB-2.png 热血警探 Hot.Fuzz.2007.2160p.BluRay.REMUX.HEVC.DTS-X.7.1-FGT 53.04GB-3.png 热血警探 Hot.Fuzz.2007.2160p.BluRay.REMUX.HEVC.DTS-X.7.1-FGT 53.04GB-4.png






开通VIP免费下载本站所有资源---点这里
新手必看:资源下载、资源播放、字幕使用、等常见问题---点这里
回复

使用道具 举报

发表于 2019-9-7 21:21:19 | 显示全部楼层
楼主发贴辛苦了,谢谢楼主分享!我觉得蓝光电影网是注册对了!
开通VIP免费下载本站所有资源---点这里
新手必看:资源下载、资源播放、字幕使用、等常见问题---点这里
回复 支持 反对

使用道具 举报

发表于 2019-9-8 08:21:35 | 显示全部楼层
楼主发贴辛苦了,谢谢楼主分享!我觉得蓝光电影网是注册对了!
开通VIP免费下载本站所有资源---点这里
新手必看:资源下载、资源播放、字幕使用、等常见问题---点这里
回复 支持 反对

使用道具 举报

发表于 7 天前 | 显示全部楼层

楼主太厉害了!楼主,电影应该很好看我觉得蓝光电影网真是个好地方!
开通VIP免费下载本站所有资源---点这里
新手必看:资源下载、资源播放、字幕使用、等常见问题---点这里
回复 支持 反对

使用道具 举报

懒得打字嘛,点击右侧快捷回复 【右侧内容,后台自定义】
您需要登录后才可以回帖 登录 | 立即加入

本版积分规则

现在加入蓝光电影网,注册一个账号

QQ| 手机版|小黑屋| 蓝光电影网 |网站地图

Copyright © 2015-2019 Comsenz Inc.  Template by 蓝光电影网 All Rights Reserved.

Powered by 蓝光电影网 X3.4

特别声明:本站所有资源均由网上收集而来,版权归原影音公司所有,如果侵犯了你的权益,请通知我们,我们会及时删除侵权内容.

快速回复 返回顶部 返回列表