找回密码

蓝光电影网

查看: 159|回复: 2

[REMUX.HEVC] 僵尸肖恩/杠上活死人 Shaun.of.the.Dead.2004.2160p.BluRay.REMUX.HEVC.DTS-X.7.1-FGT 51.36GB

[复制链接]

 成长值: 1345

发表于 2019-9-7 19:07:00 | 显示全部楼层 |阅读模式
僵尸肖恩/杠上活死人 Shaun.of.the.Dead.2004.2160p.BluRay.REMUX.HEVC.DTS-X.7.1-FGT 51.36GB-1.png

译  名 僵尸肖恩 / 杠上活死人 / 活人甡吃(台) / 活死人情缘 / 笑死人凶间
片  名 Shaun of the Dead
年  代 2004
产  地 英国 / 法国 / 美国
类  别 喜剧 / 恐怖
语  言 英语
上映日期 2004-04-09(英国)
IMDb评分  7.9/10 from 475399 users
IMDb链接  http://www.imdb.com/title/tt0365748
豆瓣评分 7.7/10 from 136752 users
豆瓣链接 https://movie.douban.com/subject/1308755/
片  长 99 分钟
导  演 埃德加·赖特 Edgar Wright
编  剧 埃德加·赖特 Edgar Wright / 西蒙·佩吉 Simon Pegg
主  演 西蒙·佩吉 Simon Pegg
       尼克·弗罗斯特 Nick Frost
       比尔·奈伊 Bill Nighy
       凯特·阿什菲尔德 Kate Ashfield
       彼得·塞拉菲诺威茨 Peter Serafinowicz
       迪兰·莫兰 Dylan Moran
       露茜·戴维斯 Lucy Davis
       尼古拉·坎宁安 Nicola Cunningham
       基尔·米尔斯 Keir Mills
       马特·杰恩斯 Matt Jaynes
       加文·弗格森 Gavin Ferguson
       霍顿·朱庇特 Horton Jupiter
       蒂姆·巴格雷 Tim Baggaley
       阿尔温德·多希 Arvind Doshi
       拉菲·斯波 Rafe Spall
       索奈尔·达卓 Sonnell Dadral


标  签 黑色幽默 | 英国 | 喜剧 | 僵尸 | 英国电影 | SimonPegg | 2004 | cult

简  介  

  肖恩(西蒙·佩吉 Simon Pegg 饰)事业不如意,爱情也不怎么顺心。认识了一帮同样游手好闲的朋友,整天和他们厮混,包括皮特,和只会打机和讨人厌的艾德。难得肖恩为了女朋友振作一次,却遭到同事嘲笑,女友也不能会意,肖恩只有继续和朋友醉酒纵乐。
  但这天整个城市却有了翻天覆地的变化。僵尸入侵了,只要是被他们咬到的人,都会随之变成僵尸。而肖恩正和艾德在酒吧里豪饮,却发现陷入僵尸的重重包围中。现在肖恩必须拿出英雄气概,去捍卫家人朋友。

获奖情况  

  第58届英国电影学院奖(2005)
  电影奖 最佳英国影片(提名) 埃德加·赖特 / Nira Park
  电影奖 英国本土杰出处女作(提名) Nira Park
  1. Video
  2. ID                                       : 1
  3. Format                                   : HEVC
  4. Format/Info                              : High Efficiency Video Coding
  5. Format profile                           : Main <a href="/cdn-cgi/l/email-protection" class="__cf_email__" data-cfemail="fdcccdbdb1c8d3cc">[email protected]</a>@High
  6. HDR format                               : SMPTE ST 2094 App 4, Version 1, HDR10+ Profile B compatible
  7. Codec ID                                 : V_MPEGH/ISO/HEVC
  8. Duration                                 : 1 h 39 min
  9. Bit rate                                 : 64.9 Mb/s
  10. Width                                    : 3 840 pixels
  11. Height                                   : 2 160 pixels
  12. Display aspect ratio                     : 16:9
  13. Frame rate mode                          : Constant
  14. Frame rate                               : 23.976 (24000/1001) FPS
  15. Color space                              : YUV
  16. Chroma subsampling                       : 4:2:0 (Type 2)
  17. Bit depth                                : 10 bits
  18. Bits/(Pixel*Frame)                       : 0.326
  19. Stream size                              : 45.1 GiB (88%)
  20. Title                                    : Shaun.of.the.Dead.2004.2160p.BluRay.REMUX.HEVC.DTS-X.7.1-FGT
  21. Language                                 : English
  22. Default                                  : No
  23. Forced                                   : No
  24. Color range                              : Limited
  25. Color primaries                          : BT.2020
  26. Transfer characteristics                 : PQ
  27. Matrix coefficients                      : BT.2020 non-constant
  28. Mastering display color primaries        : Display P3
  29. Mastering display luminance              : min: 0.0050 cd/m2, max: 1000 cd/m2
  30. Maximum Content Light Level              : 944 cd/m2
  31. Maximum Frame-Average Light Level        : 143 cd/m2

  32. Audio #1
  33. ID                                       : 2
  34. Format                                   : DTS XLL X
  35. Format/Info                              : Digital Theater Systems
  36. Commercial name                          : DTS-HD Master Audio
  37. Codec ID                                 : A_DTS
  38. Duration                                 : 1 h 39 min
  39. Bit rate mode                            : Variable
  40. Bit rate                                 : 6 587 kb/s
  41. Channel(s)                               : 8 channels
  42. Channel(s)_Original                      : Object Based
  43. Channel layout                           : Object Based
  44. Sampling rate                            : 48.0 kHz
  45. Frame rate                               : 93.750 FPS (512 SPF)
  46. Bit depth                                : 24 bits
  47. Stream size                              : 4.57 GiB (9%)
  48. Title                                    : Shaun.of.the.Dead.2004.2160p.BluRay.REMUX.HEVC.DTS-X.7.1-FGT
  49. Language                                 : English
  50. Default                                  : Yes
  51. Forced                                   : No

  52. Audio #2
  53. ID                                       : 3
  54. Format                                   : DTS
  55. Format/Info                              : Digital Theater Systems
  56. Codec ID                                 : A_DTS
  57. Duration                                 : 1 h 39 min
  58. Bit rate mode                            : Constant
  59. Bit rate                                 : 768 kb/s
  60. Channel(s)                               : 6 channels
  61. Channel layout                           : C L R Ls Rs LFE
  62. Sampling rate                            : 48.0 kHz
  63. Frame rate                               : 93.750 FPS (512 SPF)
  64. Bit depth                                : 24 bits
  65. Compression mode                         : Lossy
  66. Stream size                              : 546 MiB (1%)
  67. Title                                    : Shaun.of.the.Dead.2004.2160p.BluRay.REMUX.HEVC.DTS-X.7.1-FGT
  68. Language                                 : Spanish
  69. Default                                  : No
  70. Forced                                   : No

  71. Audio #3
  72. ID                                       : 4
  73. Format                                   : DTS
  74. Format/Info                              : Digital Theater Systems
  75. Codec ID                                 : A_DTS
  76. Duration                                 : 1 h 39 min
  77. Bit rate mode                            : Constant
  78. Bit rate                                 : 768 kb/s
  79. Channel(s)                               : 6 channels
  80. Channel layout                           : C L R Ls Rs LFE
  81. Sampling rate                            : 48.0 kHz
  82. Frame rate                               : 93.750 FPS (512 SPF)
  83. Bit depth                                : 24 bits
  84. Compression mode                         : Lossy
  85. Stream size                              : 546 MiB (1%)
  86. Title                                    : Shaun.of.the.Dead.2004.2160p.BluRay.REMUX.HEVC.DTS-X.7.1-FGT
  87. Language                                 : French
  88. Default                                  : No
  89. Forced                                   : No

  90. Audio #4
  91. ID                                       : 5
  92. Format                                   : AC-3
  93. Format/Info                              : Audio Coding 3
  94. Commercial name                          : Dolby Digital
  95. Codec ID                                 : A_AC3
  96. Duration                                 : 1 h 39 min
  97. Bit rate mode                            : Constant
  98. Bit rate                                 : 192 kb/s
  99. Channel(s)                               : 2 channels
  100. Channel layout                           : L R
  101. Sampling rate                            : 48.0 kHz
  102. Frame rate                               : 31.250 FPS (1536 SPF)
  103. Bit depth                                : 16 bits
  104. Compression mode                         : Lossy
  105. Stream size                              : 137 MiB (0%)
  106. Title                                    : Shaun.of.the.Dead.2004.2160p.BluRay.REMUX.HEVC.DTS-X.7.1-FGT
  107. Language                                 : English
  108. Service kind                             : Complete Main
  109. Default                                  : No
  110. Forced                                   : No

  111. Audio #5
  112. ID                                       : 6
  113. Format                                   : AC-3
  114. Format/Info                              : Audio Coding 3
  115. Commercial name                          : Dolby Digital
  116. Codec ID                                 : A_AC3
  117. Duration                                 : 1 h 39 min
  118. Bit rate mode                            : Constant
  119. Bit rate                                 : 192 kb/s
  120. Channel(s)                               : 2 channels
  121. Channel layout                           : L R
  122. Sampling rate                            : 48.0 kHz
  123. Frame rate                               : 31.250 FPS (1536 SPF)
  124. Bit depth                                : 16 bits
  125. Compression mode                         : Lossy
  126. Stream size                              : 137 MiB (0%)
  127. Title                                    : Shaun.of.the.Dead.2004.2160p.BluRay.REMUX.HEVC.DTS-X.7.1-FGT
  128. Language                                 : English
  129. Service kind                             : Complete Main
  130. Default                                  : No
  131. Forced                                   : No

  132. Audio #6
  133. ID                                       : 7
  134. Format                                   : AC-3
  135. Format/Info                              : Audio Coding 3
  136. Commercial name                          : Dolby Digital
  137. Codec ID                                 : A_AC3
  138. Duration                                 : 1 h 39 min
  139. Bit rate mode                            : Constant
  140. Bit rate                                 : 192 kb/s
  141. Channel(s)                               : 2 channels
  142. Channel layout                           : L R
  143. Sampling rate                            : 48.0 kHz
  144. Frame rate                               : 31.250 FPS (1536 SPF)
  145. Bit depth                                : 16 bits
  146. Compression mode                         : Lossy
  147. Stream size                              : 137 MiB (0%)
  148. Title                                    : Shaun.of.the.Dead.2004.2160p.BluRay.REMUX.HEVC.DTS-X.7.1-FGT
  149. Language                                 : English
  150. Service kind                             : Complete Main
  151. Default                                  : No
  152. Forced                                   : No

  153. Audio #7
  154. ID                                       : 8
  155. Format                                   : AC-3
  156. Format/Info                              : Audio Coding 3
  157. Commercial name                          : Dolby Digital
  158. Codec ID                                 : A_AC3
  159. Duration                                 : 1 h 39 min
  160. Bit rate mode                            : Constant
  161. Bit rate                                 : 192 kb/s
  162. Channel(s)                               : 2 channels
  163. Channel layout                           : L R
  164. Sampling rate                            : 48.0 kHz
  165. Frame rate                               : 31.250 FPS (1536 SPF)
  166. Bit depth                                : 16 bits
  167. Compression mode                         : Lossy
  168. Stream size                              : 137 MiB (0%)
  169. Title                                    : Shaun.of.the.Dead.2004.2160p.BluRay.REMUX.HEVC.DTS-X.7.1-FGT
  170. Language                                 : English
  171. Service kind                             : Complete Main
  172. Default                                  : No
  173. Forced                                   : No

  174. Text #1
  175. ID                                       : 9
  176. Format                                   : UTF-8
  177. Codec ID                                 : S_TEXT/UTF8
  178. Codec ID/Info                            : UTF-8 Plain Text
  179. Duration                                 : 1 h 34 min
  180. Bit rate                                 : 74 b/s
  181. Count of elements                        : 1595
  182. Stream size                              : 51.2 KiB (0%)
  183. Title                                    : English-SRT
  184. Language                                 : English
  185. Default                                  : Yes
  186. Forced                                   : No

  187. Text #2
  188. ID                                       : 10
  189. Format                                   : PGS
  190. Muxing mode                              : zlib
  191. Codec ID                                 : S_HDMV/PGS
  192. Codec ID/Info                            : Picture based subtitle format used on BDs/HD-DVDs
  193. Duration                                 : 1 h 34 min
  194. Bit rate                                 : 52.7 kb/s
  195. Count of elements                        : 3466
  196. Stream size                              : 35.6 MiB (0%)
  197. Title                                    : English-PGS
  198. Language                                 : English
  199. Default                                  : No
  200. Forced                                   : No

  201. Text #3
  202. ID                                       : 11
  203. Format                                   : PGS
  204. Muxing mode                              : zlib
  205. Codec ID                                 : S_HDMV/PGS
  206. Codec ID/Info                            : Picture based subtitle format used on BDs/HD-DVDs
  207. Duration                                 : 1 h 33 min
  208. Bit rate                                 : 41.4 kb/s
  209. Count of elements                        : 2792
  210. Stream size                              : 27.6 MiB (0%)
  211. Title                                    : Spanish-PGS
  212. Language                                 : Spanish
  213. Default                                  : No
  214. Forced                                   : No

  215. Text #4
  216. ID                                       : 12
  217. Format                                   : PGS
  218. Muxing mode                              : zlib
  219. Codec ID                                 : S_HDMV/PGS
  220. Codec ID/Info                            : Picture based subtitle format used on BDs/HD-DVDs
  221. Duration                                 : 1 h 33 min
  222. Bit rate                                 : 43.1 kb/s
  223. Count of elements                        : 2784
  224. Stream size                              : 28.7 MiB (0%)
  225. Title                                    : French-PGS
  226. Language                                 : French
  227. Default                                  : No
  228. Forced                                   : No

  229. Text #5
  230. ID                                       : 13
  231. Format                                   : PGS
  232. Muxing mode                              : zlib
  233. Codec ID                                 : S_HDMV/PGS
  234. Codec ID/Info                            : Picture based subtitle format used on BDs/HD-DVDs
  235. Duration                                 : 1 h 28 min
  236. Bit rate                                 : 727 b/s
  237. Count of elements                        : 44
  238. Stream size                              : 471 KiB (0%)
  239. Title                                    : Spanish-FORCED-PGS
  240. Language                                 : Spanish
  241. Default                                  : No
  242. Forced                                   : No

  243. Text #6
  244. ID                                       : 14
  245. Format                                   : PGS
  246. Muxing mode                              : zlib
  247. Codec ID                                 : S_HDMV/PGS
  248. Codec ID/Info                            : Picture based subtitle format used on BDs/HD-DVDs
  249. Duration                                 : 1 h 27 min
  250. Bit rate                                 : 733 b/s
  251. Count of elements                        : 42
  252. Stream size                              : 471 KiB (0%)
  253. Title                                    : French-FORCED-PGS
  254. Language                                 : French
  255. Default                                  : No
  256. Forced                                   : No

  257. Text #7
  258. ID                                       : 15
  259. Format                                   : PGS
  260. Muxing mode                              : zlib
  261. Codec ID                                 : S_HDMV/PGS
  262. Codec ID/Info                            : Picture based subtitle format used on BDs/HD-DVDs
  263. Duration                                 : 1 h 39 min
  264. Bit rate                                 : 101 kb/s
  265. Count of elements                        : 4576
  266. Stream size                              : 71.7 MiB (0%)
  267. Title                                    : English-COMMENTARY-PGS
  268. Language                                 : English
  269. Default                                  : No
  270. Forced                                   : No

  271. Text #8
  272. ID                                       : 16
  273. Format                                   : PGS
  274. Muxing mode                              : zlib
  275. Codec ID                                 : S_HDMV/PGS
  276. Codec ID/Info                            : Picture based subtitle format used on BDs/HD-DVDs
  277. Duration                                 : 1 h 39 min
  278. Bit rate                                 : 101 kb/s
  279. Count of elements                        : 4751
  280. Stream size                              : 71.8 MiB (0%)
  281. Title                                    : English-COMMENTARY-PGS
  282. Language                                 : English
  283. Default                                  : No
  284. Forced                                   : No

  285. Text #9
  286. ID                                       : 17
  287. Format                                   : PGS
  288. Muxing mode                              : zlib
  289. Codec ID                                 : S_HDMV/PGS
  290. Codec ID/Info                            : Picture based subtitle format used on BDs/HD-DVDs
  291. Duration                                 : 1 h 36 min
  292. Bit rate                                 : 64.9 kb/s
  293. Count of elements                        : 3749
  294. Stream size                              : 44.8 MiB (0%)
  295. Title                                    : English-COMMENTARY-PGS
  296. Language                                 : English
  297. Default                                  : No
  298. Forced                                   : No

  299. Text #10
  300. ID                                       : 18
  301. Format                                   : PGS
  302. Muxing mode                              : zlib
  303. Codec ID                                 : S_HDMV/PGS
  304. Codec ID/Info                            : Picture based subtitle format used on BDs/HD-DVDs
  305. Duration                                 : 1 h 38 min
  306. Bit rate                                 : 68.4 kb/s
  307. Count of elements                        : 3440
  308. Stream size                              : 48.4 MiB (0%)
  309. Title                                    : English-COMMENTARY-PGS
  310. Language                                 : English
  311. Default                                  : No
  312. Forced                                   : No

  313. Menu
  314. 00:00:00.000                             : en:Chapter 01
  315. 00:03:34.964                             : en:Chapter 02
  316. 00:05:02.885                             : en:Chapter 03
  317. 00:07:26.237                             : en:Chapter 04
  318. 00:08:52.156                             : en:Chapter 05
  319. 00:12:14.650                             : en:Chapter 06
  320. 00:13:50.162                             : en:Chapter 07
  321. 00:15:58.874                             : en:Chapter 08
  322. 00:18:26.647                             : en:Chapter 09
  323. 00:21:48.390                             : en:Chapter 10
  324. 00:25:34.991                             : en:Chapter 11
  325. 00:28:43.388                             : en:Chapter 12
  326. 00:30:52.976                             : en:Chapter 13
  327. 00:33:05.775                             : en:Chapter 14
  328. 00:35:23.579                             : en:Chapter 15
  329. 00:36:59.592                             : en:Chapter 16
  330. 00:39:33.704                             : en:Chapter 17
  331. 00:40:34.640                             : en:Chapter 18
  332. 00:42:10.819                             : en:Chapter 19
  333. 00:46:04.178                             : en:Chapter 20
  334. 00:47:40.816                             : en:Chapter 21
  335. 00:48:35.787                             : en:Chapter 22
  336. 00:51:32.589                             : en:Chapter 23
  337. 00:55:00.630                             : en:Chapter 24
  338. 00:56:49.030                             : en:Chapter 25
  339. 00:58:04.564                             : en:Chapter 26
  340. 01:00:08.938                             : en:Chapter 27
  341. 01:04:20.064                             : en:Chapter 28
  342. 01:07:50.316                             : en:Chapter 29
  343. 01:10:42.947                             : en:Chapter 30
  344. 01:13:57.057                             : en:Chapter 31
  345. 01:16:39.177                             : en:Chapter 32
  346. 01:21:23.253                             : en:Chapter 33
  347. 01:25:24.828                             : en:Chapter 34
  348. 01:29:58.684                             : en:Chapter 35
  349. 01:31:36.908                             : en:Chapter 36
  350. 01:33:47.663                             : en:Chapter 37
复制代码

僵尸肖恩/杠上活死人 Shaun.of.the.Dead.2004.2160p.BluRay.REMUX.HEVC.DTS-X.7.1-FGT 51.36GB-2.png 1f18b165671b8.png 僵尸肖恩/杠上活死人 Shaun.of.the.Dead.2004.2160p.BluRay.REMUX.HEVC.DTS-X.7.1-FGT 51.36GB-4.png






开通VIP免费下载本站所有资源---点这里
新手必看:资源下载、资源播放、字幕使用、等常见问题---点这里
回复

使用道具 举报

发表于 2019-9-7 20:11:59 | 显示全部楼层

我看不错噢 谢谢楼主!蓝光电影网越来越好!
开通VIP免费下载本站所有资源---点这里
新手必看:资源下载、资源播放、字幕使用、等常见问题---点这里
回复 支持 反对

使用道具 举报

发表于 2019-9-8 03:40:38 | 显示全部楼层

这个帖子不回对不起自己!我想我是一天也不能离开蓝光电影网
开通VIP免费下载本站所有资源---点这里
新手必看:资源下载、资源播放、字幕使用、等常见问题---点这里
回复 支持 反对

使用道具 举报

懒得打字嘛,点击右侧快捷回复 【右侧内容,后台自定义】
您需要登录后才可以回帖 登录 | 立即加入

本版积分规则

现在加入蓝光电影网,注册一个账号

QQ| 手机版|小黑屋| 蓝光电影网 |网站地图

Copyright © 2015-2019 Comsenz Inc.  Template by 蓝光电影网 All Rights Reserved.

Powered by 蓝光电影网 X3.4

特别声明:本站所有资源均由网上收集而来,版权归原影音公司所有,如果侵犯了你的权益,请通知我们,我们会及时删除侵权内容.

快速回复 返回顶部 返回列表