找回密码

蓝光电影网

查看: 112|回复: 4

[8bit.SDR] 僵尸肖恩/杠上活死人 Shaun.of.the.Dead.2004.2160p.BluRay.x264.8bit.SDR.DTS-X.7.1-SWTYBLZ 43.61GB

[复制链接]

 成长值: 1345

发表于 2019-9-7 17:10:14 | 显示全部楼层 |阅读模式
僵尸肖恩/杠上活死人 Shaun.of.the.Dead.2004.2160p.BluRay.x264.8bit.SDR.DTS-X.7.1-SWTYBLZ 43.61GB-1.png

译  名 僵尸肖恩 / 杠上活死人 / 活人甡吃(台) / 活死人情缘 / 笑死人凶间
片  名 Shaun of the Dead
年  代 2004
产  地 英国 / 法国 / 美国
类  别 喜剧 / 恐怖
语  言 英语
上映日期 2004-04-09(英国)
IMDb评分  7.9/10 from 475399 users
IMDb链接  http://www.imdb.com/title/tt0365748
豆瓣评分 7.7/10 from 136752 users
豆瓣链接 https://movie.douban.com/subject/1308755/
片  长 99 分钟
导  演 埃德加·赖特 Edgar Wright
编  剧 埃德加·赖特 Edgar Wright / 西蒙·佩吉 Simon Pegg
主  演 西蒙·佩吉 Simon Pegg
       尼克·弗罗斯特 Nick Frost
       比尔·奈伊 Bill Nighy
       凯特·阿什菲尔德 Kate Ashfield
       彼得·塞拉菲诺威茨 Peter Serafinowicz
       迪兰·莫兰 Dylan Moran
       露茜·戴维斯 Lucy Davis
       尼古拉·坎宁安 Nicola Cunningham
       基尔·米尔斯 Keir Mills
       马特·杰恩斯 Matt Jaynes
       加文·弗格森 Gavin Ferguson
       霍顿·朱庇特 Horton Jupiter
       蒂姆·巴格雷 Tim Baggaley
       阿尔温德·多希 Arvind Doshi
       拉菲·斯波 Rafe Spall
       索奈尔·达卓 Sonnell Dadral


标  签 黑色幽默 | 英国 | 喜剧 | 僵尸 | 英国电影 | SimonPegg | 2004 | cult

简  介  

  肖恩(西蒙·佩吉 Simon Pegg 饰)事业不如意,爱情也不怎么顺心。认识了一帮同样游手好闲的朋友,整天和他们厮混,包括皮特,和只会打机和讨人厌的艾德。难得肖恩为了女朋友振作一次,却遭到同事嘲笑,女友也不能会意,肖恩只有继续和朋友醉酒纵乐。
  但这天整个城市却有了翻天覆地的变化。僵尸入侵了,只要是被他们咬到的人,都会随之变成僵尸。而肖恩正和艾德在酒吧里豪饮,却发现陷入僵尸的重重包围中。现在肖恩必须拿出英雄气概,去捍卫家人朋友。

获奖情况  

  第58届英国电影学院奖(2005)
  电影奖 最佳英国影片(提名) 埃德加·赖特 / Nira Park
  电影奖 英国本土杰出处女作(提名) Nira Park
  1. Video
  2. ID                                       : 1
  3. Format                                   : AVC
  4. Format/Info                              : Advanced Video Codec
  5. Format profile                           : <a href="/cdn-cgi/l/email-protection" class="__cf_email__" data-cfemail="165e7f717e565a233827">[email protected]</a>
  6. Format settings                          : CABAC / 5 Ref Frames
  7. Format settings, CABAC                   : Yes
  8. Format settings, Reference frames        : 5 frames
  9. Codec ID                                 : V_MPEG4/ISO/AVC
  10. Duration                                 : 1 h 39 min
  11. Bit rate                                 : 56.1 Mb/s
  12. Width                                    : 3 840 pixels
  13. Height                                   : 1 634 pixels
  14. Display aspect ratio                     : 2.35:1
  15. Frame rate mode                          : Constant
  16. Frame rate                               : 23.976 (24000/1001) FPS
  17. Color space                              : YUV
  18. Chroma subsampling                       : 4:2:0
  19. Bit depth                                : 8 bits
  20. Scan type                                : Progressive
  21. Bits/(Pixel*Frame)                       : 0.373
  22. Stream size                              : 38.4 GiB (88%)
  23. Title                                    : Shaun.of.the.Dead.2004.2160p.BluRay.x264.8bit.SDR.DTS-X.7.1-SWTYBLZ
  24. Writing library                          : x264 core 157 r2935 545de2f
  25. Encoding settings                        : cabac=1 / ref=5 / deblock=1:-1:-1 / analyse=0x3:0x113 / me=umh / subme=10 / psy=1 / psy_rd=1.00:0.15 / mixed_ref=1 / me_range=48 / chroma_me=1 / trellis=2 / 8x8dct=1 / cqm=0 / deadzone=21,11 / fast_pskip=1 / chroma_qp_offset=-3 / threads=48 / lookahead_threads=4 / sliced_threads=0 / nr=0 / decimate=0 / interlaced=0 / bluray_compat=0 / constrained_intra=0 / bframes=3 / b_pyramid=2 / b_adapt=2 / b_bias=0 / direct=3 / weightb=1 / open_gop=0 / weightp=2 / keyint=250 / keyint_min=23 / scenecut=40 / intra_refresh=0 / rc_lookahead=50 / rc=crf / mbtree=1 / crf=18.0 / qcomp=0.60 / qpmin=0 / qpmax=69 / qpstep=4 / ip_ratio=1.40 / aq=1:1.00
  26. Language                                 : English
  27. Default                                  : Yes
  28. Forced                                   : No

  29. Audio #1
  30. ID                                       : 2
  31. Format                                   : DTS XLL X
  32. Format/Info                              : Digital Theater Systems
  33. Commercial name                          : DTS-HD Master Audio
  34. Codec ID                                 : A_DTS
  35. Duration                                 : 1 h 39 min
  36. Bit rate mode                            : Variable
  37. Bit rate                                 : 6 587 kb/s
  38. Channel(s)                               : 8 channels
  39. Channel(s)_Original                      : Object Based
  40. Channel layout                           : Object Based
  41. Sampling rate                            : 48.0 kHz
  42. Frame rate                               : 93.750 FPS (512 SPF)
  43. Bit depth                                : 24 bits
  44. Stream size                              : 4.57 GiB (11%)
  45. Title                                    : Shaun.of.the.Dead.2004.2160p.BluRay.x264.8bit.SDR.DTS-X.7.1-SWTYBLZ
  46. Language                                 : English
  47. Default                                  : Yes
  48. Forced                                   : No

  49. Audio #2
  50. ID                                       : 3
  51. Format                                   : AC-3
  52. Format/Info                              : Audio Coding 3
  53. Commercial name                          : Dolby Digital
  54. Codec ID                                 : A_AC3
  55. Duration                                 : 1 h 39 min
  56. Bit rate mode                            : Constant
  57. Bit rate                                 : 640 kb/s
  58. Channel(s)                               : 6 channels
  59. Channel layout                           : L R C LFE Ls Rs
  60. Sampling rate                            : 48.0 kHz
  61. Frame rate                               : 31.250 FPS (1536 SPF)
  62. Bit depth                                : 16 bits
  63. Compression mode                         : Lossy
  64. Stream size                              : 455 MiB (1%)
  65. Title                                    : Shaun.of.the.Dead.2004.2160p.BluRay.x264.8bit.SDR.DTS-X.7.1-SWTYBLZ
  66. Language                                 : English
  67. Service kind                             : Complete Main
  68. Default                                  : No
  69. Forced                                   : No

  70. Text #1
  71. ID                                       : 4
  72. Format                                   : UTF-8
  73. Codec ID                                 : S_TEXT/UTF8
  74. Codec ID/Info                            : UTF-8 Plain Text
  75. Duration                                 : 1 h 34 min
  76. Bit rate                                 : 74 b/s
  77. Count of elements                        : 1595
  78. Stream size                              : 51.2 KiB (0%)
  79. Title                                    : English-SRT
  80. Language                                 : English
  81. Default                                  : Yes
  82. Forced                                   : No

  83. Text #2
  84. ID                                       : 5
  85. Format                                   : PGS
  86. Muxing mode                              : zlib
  87. Codec ID                                 : S_HDMV/PGS
  88. Codec ID/Info                            : Picture based subtitle format used on BDs/HD-DVDs
  89. Duration                                 : 1 h 34 min
  90. Bit rate                                 : 52.7 kb/s
  91. Count of elements                        : 3466
  92. Stream size                              : 35.6 MiB (0%)
  93. Title                                    : English-SDH-PGS
  94. Language                                 : English
  95. Default                                  : No
  96. Forced                                   : No

  97. Text #3
  98. ID                                       : 6
  99. Format                                   : PGS
  100. Muxing mode                              : zlib
  101. Codec ID                                 : S_HDMV/PGS
  102. Codec ID/Info                            : Picture based subtitle format used on BDs/HD-DVDs
  103. Duration                                 : 1 h 33 min
  104. Bit rate                                 : 43.1 kb/s
  105. Count of elements                        : 2784
  106. Stream size                              : 28.7 MiB (0%)
  107. Title                                    : French-PGS
  108. Language                                 : French
  109. Default                                  : No
  110. Forced                                   : No

  111. Text #4
  112. ID                                       : 7
  113. Format                                   : PGS
  114. Muxing mode                              : zlib
  115. Codec ID                                 : S_HDMV/PGS
  116. Codec ID/Info                            : Picture based subtitle format used on BDs/HD-DVDs
  117. Duration                                 : 1 h 33 min
  118. Bit rate                                 : 28.6 kb/s
  119. Count of elements                        : 3180
  120. Stream size                              : 19.1 MiB (0%)
  121. Title                                    : Japanese-PGS
  122. Language                                 : Japanese
  123. Default                                  : No
  124. Forced                                   : No

  125. Text #5
  126. ID                                       : 8
  127. Format                                   : PGS
  128. Muxing mode                              : zlib
  129. Codec ID                                 : S_HDMV/PGS
  130. Codec ID/Info                            : Picture based subtitle format used on BDs/HD-DVDs
  131. Duration                                 : 1 h 38 min
  132. Bit rate                                 : 36.6 kb/s
  133. Count of elements                        : 2512
  134. Stream size                              : 25.8 MiB (0%)
  135. Title                                    : Portuguese-PGS
  136. Language                                 : Portuguese
  137. Default                                  : No
  138. Forced                                   : No

  139. Text #6
  140. ID                                       : 9
  141. Format                                   : PGS
  142. Muxing mode                              : zlib
  143. Codec ID                                 : S_HDMV/PGS
  144. Codec ID/Info                            : Picture based subtitle format used on BDs/HD-DVDs
  145. Duration                                 : 1 h 33 min
  146. Bit rate                                 : 41.4 kb/s
  147. Count of elements                        : 2792
  148. Stream size                              : 27.6 MiB (0%)
  149. Title                                    : Spanish-PGS
  150. Language                                 : Spanish
  151. Default                                  : No
  152. Forced                                   : No

  153. Menu
  154. 00:00:00.000                             : en:Chapter 01
  155. 00:03:35.048                             : en:Chapter 02
  156. 00:05:02.886                             : en:Chapter 03
  157. 00:07:26.571                             : en:Chapter 04
  158. 00:08:52.490                             : en:Chapter 05
  159. 00:12:14.943                             : en:Chapter 06
  160. 00:13:50.538                             : en:Chapter 07
  161. 00:15:58.958                             : en:Chapter 08
  162. 00:18:26.856                             : en:Chapter 09
  163. 00:21:48.516                             : en:Chapter 10
  164. 00:25:34.992                             : en:Chapter 11
  165. 00:28:43.388                             : en:Chapter 12
  166. 00:30:53.268                             : en:Chapter 13
  167. 00:33:05.775                             : en:Chapter 14
  168. 00:35:23.872                             : en:Chapter 15
  169. 00:36:59.592                             : en:Chapter 16
  170. 00:39:33.705                             : en:Chapter 17
  171. 00:40:34.932                             : en:Chapter 18
  172. 00:42:11.070                             : en:Chapter 19
  173. 00:46:04.553                             : en:Chapter 20
  174. 00:47:41.192                             : en:Chapter 21
  175. 00:48:35.996                             : en:Chapter 22
  176. 00:51:32.965                             : en:Chapter 23
  177. 00:55:00.672                             : en:Chapter 24
  178. 00:56:49.239                             : en:Chapter 25
  179. 00:58:04.564                             : en:Chapter 26
  180. 01:00:09.147                             : en:Chapter 27
  181. 01:04:20.398                             : en:Chapter 28
  182. 01:07:50.483                             : en:Chapter 29
  183. 01:10:42.947                             : en:Chapter 30
  184. 01:13:57.350                             : en:Chapter 31
  185. 01:16:39.428                             : en:Chapter 32
  186. 01:21:23.295                             : en:Chapter 33
  187. 01:25:24.828                             : en:Chapter 34
  188. 01:29:58.393                             : en:Chapter 35
  189. 01:31:36.491                             : en:Chapter 36
  190. 01:33:47.664                             : en:Chapter 37
复制代码

僵尸肖恩/杠上活死人 Shaun.of.the.Dead.2004.2160p.BluRay.x264.8bit.SDR.DTS-X.7.1-SWTYBLZ 43.61GB-2.png 僵尸肖恩/杠上活死人 Shaun.of.the.Dead.2004.2160p.BluRay.x264.8bit.SDR.DTS-X.7.1-SWTYBLZ 43.61GB-3.png 僵尸肖恩/杠上活死人 Shaun.of.the.Dead.2004.2160p.BluRay.x264.8bit.SDR.DTS-X.7.1-SWTYBLZ 43.61GB-4.png 僵尸肖恩/杠上活死人 Shaun.of.the.Dead.2004.2160p.BluRay.x264.8bit.SDR.DTS-X.7.1-SWTYBLZ 43.61GB-5.png 僵尸肖恩/杠上活死人 Shaun.of.the.Dead.2004.2160p.BluRay.x264.8bit.SDR.DTS-X.7.1-SWTYBLZ 43.61GB-6.png 僵尸肖恩/杠上活死人 Shaun.of.the.Dead.2004.2160p.BluRay.x264.8bit.SDR.DTS-X.7.1-SWTYBLZ 43.61GB-7.png 僵尸肖恩/杠上活死人 Shaun.of.the.Dead.2004.2160p.BluRay.x264.8bit.SDR.DTS-X.7.1-SWTYBLZ 43.61GB-8.png






开通VIP免费下载本站所有资源---点这里
新手必看:资源下载、资源播放、字幕使用、等常见问题---点这里
回复

使用道具 举报

发表于 2019-9-7 17:29:05 | 显示全部楼层
,最近丧尸片很多啊。
开通VIP免费下载本站所有资源---点这里
新手必看:资源下载、资源播放、字幕使用、等常见问题---点这里
回复 支持 反对

使用道具 举报

发表于 2019-9-7 17:59:32 | 显示全部楼层
感谢楼主分享!!
开通VIP免费下载本站所有资源---点这里
新手必看:资源下载、资源播放、字幕使用、等常见问题---点这里
回复 支持 反对

使用道具 举报

发表于 2019-9-7 20:44:38 | 显示全部楼层
楼主发贴辛苦了,谢谢楼主分享!我觉得蓝光电影网是注册对了!
开通VIP免费下载本站所有资源---点这里
新手必看:资源下载、资源播放、字幕使用、等常见问题---点这里
回复 支持 反对

使用道具 举报

发表于 2019-9-8 23:55:59 | 显示全部楼层

楼主太厉害了!楼主,电影应该很好看我觉得蓝光电影网真是个好地方!
开通VIP免费下载本站所有资源---点这里
新手必看:资源下载、资源播放、字幕使用、等常见问题---点这里
回复 支持 反对

使用道具 举报

懒得打字嘛,点击右侧快捷回复 【右侧内容,后台自定义】
您需要登录后才可以回帖 登录 | 立即加入

本版积分规则

现在加入蓝光电影网,注册一个账号

QQ| 手机版|小黑屋| 蓝光电影网 |网站地图

Copyright © 2015-2019 Comsenz Inc.  Template by 蓝光电影网 All Rights Reserved.

Powered by 蓝光电影网 X3.4

特别声明:本站所有资源均由网上收集而来,版权归原影音公司所有,如果侵犯了你的权益,请通知我们,我们会及时删除侵权内容.

快速回复 返回顶部 返回列表