找回密码

蓝光电影网

查看: 67|回复: 0

[10bit.SDR] 僵尸肖恩/杠上活死人 Shaun.of.the.Dead.2004.2160p.BluRay.x265.10bit.SDR.DTS-X.7.1-SWTYBLZ 35.48GB

[复制链接]

 成长值: 1345

发表于 2019-9-7 17:07:38 | 显示全部楼层 |阅读模式
僵尸肖恩/杠上活死人 Shaun.of.the.Dead.2004.2160p.BluRay.x265.10bit.SDR.DTS-X.7.1-SWTYBLZ 35.48GB-1.png

译  名 僵尸肖恩 / 杠上活死人 / 活人甡吃(台) / 活死人情缘 / 笑死人凶间
片  名 Shaun of the Dead
年  代 2004
产  地 英国 / 法国 / 美国
类  别 喜剧 / 恐怖
语  言 英语
上映日期 2004-04-09(英国)
IMDb评分  7.9/10 from 475399 users
IMDb链接  http://www.imdb.com/title/tt0365748
豆瓣评分 7.7/10 from 136752 users
豆瓣链接 https://movie.douban.com/subject/1308755/
片  长 99 分钟
导  演 埃德加·赖特 Edgar Wright
编  剧 埃德加·赖特 Edgar Wright / 西蒙·佩吉 Simon Pegg
主  演 西蒙·佩吉 Simon Pegg
       尼克·弗罗斯特 Nick Frost
       比尔·奈伊 Bill Nighy
       凯特·阿什菲尔德 Kate Ashfield
       彼得·塞拉菲诺威茨 Peter Serafinowicz
       迪兰·莫兰 Dylan Moran
       露茜·戴维斯 Lucy Davis
       尼古拉·坎宁安 Nicola Cunningham
       基尔·米尔斯 Keir Mills
       马特·杰恩斯 Matt Jaynes
       加文·弗格森 Gavin Ferguson
       霍顿·朱庇特 Horton Jupiter
       蒂姆·巴格雷 Tim Baggaley
       阿尔温德·多希 Arvind Doshi
       拉菲·斯波 Rafe Spall
       索奈尔·达卓 Sonnell Dadral


标  签 黑色幽默 | 英国 | 喜剧 | 僵尸 | 英国电影 | SimonPegg | 2004 | cult

简  介  

  肖恩(西蒙·佩吉 Simon Pegg 饰)事业不如意,爱情也不怎么顺心。认识了一帮同样游手好闲的朋友,整天和他们厮混,包括皮特,和只会打机和讨人厌的艾德。难得肖恩为了女朋友振作一次,却遭到同事嘲笑,女友也不能会意,肖恩只有继续和朋友醉酒纵乐。
  但这天整个城市却有了翻天覆地的变化。僵尸入侵了,只要是被他们咬到的人,都会随之变成僵尸。而肖恩正和艾德在酒吧里豪饮,却发现陷入僵尸的重重包围中。现在肖恩必须拿出英雄气概,去捍卫家人朋友。

获奖情况  

  第58届英国电影学院奖(2005)
  电影奖 最佳英国影片(提名) 埃德加·赖特 / Nira Park
  电影奖 英国本土杰出处女作(提名) Nira Park
  1. Video
  2. ID                                       : 1
  3. Format                                   : HEVC
  4. Format/Info                              : High Efficiency Video Coding
  5. Format profile                           : Main <a href="/cdn-cgi/l/email-protection" class="__cf_email__" data-cfemail="f5c4c5b5b9c0dbc4">[email protected]</a>@High
  6. Codec ID                                 : V_MPEGH/ISO/HEVC
  7. Duration                                 : 1 h 39 min
  8. Bit rate                                 : 43.5 Mb/s
  9. Width                                    : 3 840 pixels
  10. Height                                   : 1 634 pixels
  11. Display aspect ratio                     : 2.35:1
  12. Frame rate mode                          : Constant
  13. Frame rate                               : 23.976 (24000/1001) FPS
  14. Color space                              : YUV
  15. Chroma subsampling                       : 4:2:0
  16. Bit depth                                : 10 bits
  17. Bits/(Pixel*Frame)                       : 0.289
  18. Stream size                              : 30.2 GiB (86%)
  19. Title                                    : Shaun.of.the.Dead.2004.2160p.BluRay.x265.10bit.SDR.DTS-X.7.1-SWTYBLZ
  20. Writing library                          : x265 3.0ed72af837053:[Windows][GCC 8.2.0][64 bit] 10bit
  21. Encoding settings                        : cpuid=1111039 / frame-threads=16 / numa-pools=44,44 / wpp / no-pmode / no-pme / no-psnr / no-ssim / log-level=2 / input-csp=1 / input-res=3840x1634 / interlace=0 / total-frames=143021 / level-idc=51 / high-tier=1 / uhd-bd=0 / ref=3 / no-allow-non-conformance / repeat-headers / annexb / aud / hrd / info / hash=0 / no-temporal-layers / no-open-gop / min-keyint=1 / keyint=24 / gop-lookahead=0 / bframes=4 / b-adapt=2 / b-pyramid / bframe-bias=0 / rc-lookahead=25 / lookahead-slices=4 / scenecut=40 / radl=0 / no-splice / no-intra-refresh / ctu=64 / min-cu-size=8 / no-rect / no-amp / max-tu-size=32 / tu-inter-depth=1 / tu-intra-depth=1 / limit-tu=0 / rdoq-level=0 / dynamic-rd=0.00 / no-ssim-rd / signhide / no-tskip / nr-intra=0 / nr-inter=0 / no-constrained-intra / strong-intra-smoothing / max-merge=2 / limit-refs=3 / no-limit-modes / me=1 / subme=2 / merange=57 / temporal-mvp / weightp / no-weightb / no-analyze-src-pics / deblock=0:0 / no-sao / no-sao-non-deblock / rd=3 / no-early-skip / rskip / no-fast-intra / no-tskip-fast / no-cu-lossless / no-b-intra / no-splitrd-skip / rdpenalty=0 / psy-rd=2.00 / psy-rdoq=0.00 / no-rd-refine / no-lossless / cbqpoffs=0 / crqpoffs=0 / rc=crf / crf=16.0 / qcomp=0.60 / qpstep=4 / stats-write=0 / stats-read=0 / vbv-maxrate=160000 / vbv-bufsize=160000 / vbv-init=0.9 / crf-max=0.0 / crf-min=0.0 / ipratio=1.40 / pbratio=1.30 / aq-mode=1 / aq-strength=1.00 / cutree / zone-count=0 / no-strict-cbr / qg-size=32 / no-rc-grain / qpmax=69 / qpmin=0 / no-const-vbv / sar=1 / overscan=0 / videoformat=5 / range=0 / colorprim=2 / transfer=2 / colormatrix=2 / chromaloc=0 / display-window=0 / max-cll=0,0 / min-luma=0 / max-luma=1023 / log2-max-poc-lsb=8 / vui-timing-info / vui-hrd-info / slices=1 / opt-qp-pps / opt-ref-list-length-pps / no-multi-pass-opt-rps / scenecut-bias=0.05 / no-opt-cu-delta-qp / no-aq-motion / no-hdr / no-hdr-opt / no-dhdr10-opt / no-idr-recovery-sei / analysis-reuse-level=5 / scale-factor=0 / refine-intra=0 / refine-inter=0 / refine-mv=0 / refine-ctu-distortion=0 / no-limit-sao / ctu-info=0 / no-lowpass-dct / refine-analysis-type=0 / copy-pic=1 / max-ausize-factor=1.0 / no-dynamic-refine / no-single-sei / no-hevc-aq / qp-adaptation-range=1.00
  22. Default                                  : Yes
  23. Forced                                   : No

  24. Audio #1
  25. ID                                       : 2
  26. Format                                   : DTS XLL X
  27. Format/Info                              : Digital Theater Systems
  28. Commercial name                          : DTS-HD Master Audio
  29. Codec ID                                 : A_DTS
  30. Duration                                 : 1 h 39 min
  31. Bit rate mode                            : Variable
  32. Bit rate                                 : 6 587 kb/s
  33. Channel(s)                               : 8 channels
  34. Channel(s)_Original                      : Object Based
  35. Channel layout                           : Object Based
  36. Sampling rate                            : 48.0 kHz
  37. Frame rate                               : 93.750 FPS (512 SPF)
  38. Bit depth                                : 24 bits
  39. Stream size                              : 4.57 GiB (13%)
  40. Title                                    : Shaun.of.the.Dead.2004.2160p.BluRay.x265.10bit.SDR.DTS-X.7.1-SWTYBLZ
  41. Language                                 : English
  42. Default                                  : Yes
  43. Forced                                   : No

  44. Audio #2
  45. ID                                       : 3
  46. Format                                   : AC-3
  47. Format/Info                              : Audio Coding 3
  48. Commercial name                          : Dolby Digital
  49. Codec ID                                 : A_AC3
  50. Duration                                 : 1 h 39 min
  51. Bit rate mode                            : Constant
  52. Bit rate                                 : 640 kb/s
  53. Channel(s)                               : 6 channels
  54. Channel layout                           : L R C LFE Ls Rs
  55. Sampling rate                            : 48.0 kHz
  56. Frame rate                               : 31.250 FPS (1536 SPF)
  57. Bit depth                                : 16 bits
  58. Compression mode                         : Lossy
  59. Stream size                              : 455 MiB (1%)
  60. Title                                    : Shaun.of.the.Dead.2004.2160p.BluRay.x265.10bit.SDR.DTS-X.7.1-SWTYBLZ
  61. Language                                 : English
  62. Service kind                             : Complete Main
  63. Default                                  : No
  64. Forced                                   : No

  65. Text #1
  66. ID                                       : 4
  67. Format                                   : UTF-8
  68. Codec ID                                 : S_TEXT/UTF8
  69. Codec ID/Info                            : UTF-8 Plain Text
  70. Duration                                 : 1 h 34 min
  71. Bit rate                                 : 74 b/s
  72. Count of elements                        : 1595
  73. Stream size                              : 51.2 KiB (0%)
  74. Title                                    : English-SRT
  75. Language                                 : English
  76. Default                                  : Yes
  77. Forced                                   : No

  78. Text #2
  79. ID                                       : 5
  80. Format                                   : PGS
  81. Muxing mode                              : zlib
  82. Codec ID                                 : S_HDMV/PGS
  83. Codec ID/Info                            : Picture based subtitle format used on BDs/HD-DVDs
  84. Duration                                 : 1 h 34 min
  85. Bit rate                                 : 52.7 kb/s
  86. Count of elements                        : 3466
  87. Stream size                              : 35.6 MiB (0%)
  88. Title                                    : English-SDH-PGS
  89. Language                                 : English
  90. Default                                  : No
  91. Forced                                   : No

  92. Text #3
  93. ID                                       : 6
  94. Format                                   : PGS
  95. Muxing mode                              : zlib
  96. Codec ID                                 : S_HDMV/PGS
  97. Codec ID/Info                            : Picture based subtitle format used on BDs/HD-DVDs
  98. Duration                                 : 1 h 33 min
  99. Bit rate                                 : 43.1 kb/s
  100. Count of elements                        : 2784
  101. Stream size                              : 28.7 MiB (0%)
  102. Title                                    : French-PGS
  103. Language                                 : French
  104. Default                                  : No
  105. Forced                                   : No

  106. Text #4
  107. ID                                       : 7
  108. Format                                   : PGS
  109. Muxing mode                              : zlib
  110. Codec ID                                 : S_HDMV/PGS
  111. Codec ID/Info                            : Picture based subtitle format used on BDs/HD-DVDs
  112. Duration                                 : 1 h 33 min
  113. Bit rate                                 : 28.6 kb/s
  114. Count of elements                        : 3180
  115. Stream size                              : 19.1 MiB (0%)
  116. Title                                    : Japanese-PGS
  117. Language                                 : Japanese
  118. Default                                  : No
  119. Forced                                   : No

  120. Text #5
  121. ID                                       : 8
  122. Format                                   : PGS
  123. Muxing mode                              : zlib
  124. Codec ID                                 : S_HDMV/PGS
  125. Codec ID/Info                            : Picture based subtitle format used on BDs/HD-DVDs
  126. Duration                                 : 1 h 38 min
  127. Bit rate                                 : 36.6 kb/s
  128. Count of elements                        : 2512
  129. Stream size                              : 25.8 MiB (0%)
  130. Title                                    : Portuguese-PGS
  131. Language                                 : Portuguese
  132. Default                                  : No
  133. Forced                                   : No

  134. Text #6
  135. ID                                       : 9
  136. Format                                   : PGS
  137. Muxing mode                              : zlib
  138. Codec ID                                 : S_HDMV/PGS
  139. Codec ID/Info                            : Picture based subtitle format used on BDs/HD-DVDs
  140. Duration                                 : 1 h 33 min
  141. Bit rate                                 : 41.4 kb/s
  142. Count of elements                        : 2792
  143. Stream size                              : 27.6 MiB (0%)
  144. Title                                    : Spanish-PGS
  145. Language                                 : Spanish
  146. Default                                  : No
  147. Forced                                   : No

  148. Menu
  149. 00:00:00.000                             : en:Chapter 01
  150. 00:03:35.048                             : en:Chapter 02
  151. 00:05:02.886                             : en:Chapter 03
  152. 00:07:26.571                             : en:Chapter 04
  153. 00:08:52.490                             : en:Chapter 05
  154. 00:12:14.943                             : en:Chapter 06
  155. 00:13:50.538                             : en:Chapter 07
  156. 00:15:58.958                             : en:Chapter 08
  157. 00:18:26.856                             : en:Chapter 09
  158. 00:21:48.516                             : en:Chapter 10
  159. 00:25:34.992                             : en:Chapter 11
  160. 00:28:43.388                             : en:Chapter 12
  161. 00:30:53.268                             : en:Chapter 13
  162. 00:33:05.775                             : en:Chapter 14
  163. 00:35:23.872                             : en:Chapter 15
  164. 00:36:59.592                             : en:Chapter 16
  165. 00:39:33.705                             : en:Chapter 17
  166. 00:40:34.932                             : en:Chapter 18
  167. 00:42:11.070                             : en:Chapter 19
  168. 00:46:04.553                             : en:Chapter 20
  169. 00:47:41.192                             : en:Chapter 21
  170. 00:48:35.996                             : en:Chapter 22
  171. 00:51:32.965                             : en:Chapter 23
  172. 00:55:00.672                             : en:Chapter 24
  173. 00:56:49.239                             : en:Chapter 25
  174. 00:58:04.564                             : en:Chapter 26
  175. 01:00:09.147                             : en:Chapter 27
  176. 01:04:20.398                             : en:Chapter 28
  177. 01:07:50.483                             : en:Chapter 29
  178. 01:10:42.947                             : en:Chapter 30
  179. 01:13:57.350                             : en:Chapter 31
  180. 01:16:39.428                             : en:Chapter 32
  181. 01:21:23.295                             : en:Chapter 33
  182. 01:25:24.828                             : en:Chapter 34
  183. 01:29:58.393                             : en:Chapter 35
  184. 01:31:36.491                             : en:Chapter 36
  185. 01:33:47.664                             : en:Chapter 37
复制代码

僵尸肖恩/杠上活死人 Shaun.of.the.Dead.2004.2160p.BluRay.x265.10bit.SDR.DTS-X.7.1-SWTYBLZ 35.48GB-2.png 僵尸肖恩/杠上活死人 Shaun.of.the.Dead.2004.2160p.BluRay.x265.10bit.SDR.DTS-X.7.1-SWTYBLZ 35.48GB-3.png 僵尸肖恩/杠上活死人 Shaun.of.the.Dead.2004.2160p.BluRay.x265.10bit.SDR.DTS-X.7.1-SWTYBLZ 35.48GB-4.png 僵尸肖恩/杠上活死人 Shaun.of.the.Dead.2004.2160p.BluRay.x265.10bit.SDR.DTS-X.7.1-SWTYBLZ 35.48GB-5.png 僵尸肖恩/杠上活死人 Shaun.of.the.Dead.2004.2160p.BluRay.x265.10bit.SDR.DTS-X.7.1-SWTYBLZ 35.48GB-6.png 僵尸肖恩/杠上活死人 Shaun.of.the.Dead.2004.2160p.BluRay.x265.10bit.SDR.DTS-X.7.1-SWTYBLZ 35.48GB-7.png 僵尸肖恩/杠上活死人 Shaun.of.the.Dead.2004.2160p.BluRay.x265.10bit.SDR.DTS-X.7.1-SWTYBLZ 35.48GB-8.png






开通VIP免费下载本站所有资源---点这里
新手必看:资源下载、资源播放、字幕使用、等常见问题---点这里
回复

使用道具 举报

懒得打字嘛,点击右侧快捷回复 【右侧内容,后台自定义】
您需要登录后才可以回帖 登录 | 立即加入

本版积分规则

现在加入蓝光电影网,注册一个账号

QQ| 手机版|小黑屋| 蓝光电影网 |网站地图

Copyright © 2015-2019 Comsenz Inc.  Template by 蓝光电影网 All Rights Reserved.

Powered by 蓝光电影网 X3.4

特别声明:本站所有资源均由网上收集而来,版权归原影音公司所有,如果侵犯了你的权益,请通知我们,我们会及时删除侵权内容.

快速回复 返回顶部 返回列表