找回密码

蓝光电影网

查看: 123|回复: 1

[8bit.SDR] 世界尽头/世界终极 The.Worlds.End.2013.2160p.BluRay.x264.8bit.SDR.DTS-X.7.1-SWTYBLZ 49.25GB

[复制链接]

 成长值: 1345

发表于 2019-9-7 17:05:13 | 显示全部楼层 |阅读模式
c212ba0f98e00.png

译  名 世界尽头 / 世界终极 / 世界终点 / 世芥末日(台) / 醉后末日(台) / 醉爆末日党(港)
片  名 The World's End
年  代 2013
产  地 英国
类  别 喜剧 / 动作 / 科幻
语  言 英语
上映日期 2013-07-19(英国)
IMDb评分  7.0/10 from 239493 users
IMDb链接  http://www.imdb.com/title/tt1213663
豆瓣评分 7.4/10 from 44172 users
豆瓣链接 https://movie.douban.com/subject/3026572/
片  长 109分钟
导  演 埃德加·赖特 Edgar Wright
编  剧 西蒙·佩吉 Simon Pegg / 埃德加·赖特 Edgar Wright
主  演 西蒙·佩吉 Simon Pegg
       尼克·弗罗斯特 Nick Frost
       帕迪·康斯戴恩 Paddy Considine
       马丁·弗瑞曼 Martin Freeman
       埃迪·马森 Eddie Marsan
       罗莎蒙德·派克 Rosamund Pike
       托马斯·洛 Thomas Law
       Zachary Bailess
       Jasper Levine
       James Tarpey
       Luke Bromley
       Sophie Evans
       Samantha White
       Rose Reynolds
       Richard Hadfield
       Flora Slorach
       Francesca Reidie
       Charlotte Reidie
       大卫·布拉德利 David Bradley
       迈克尔·史麦利 Michael Smiley
       皮尔斯·布鲁斯南 Pierce Brosnan


标  签 英国 | 喜剧 | 科幻 | SimonPegg | 英国电影 | 2013 | 黑色幽默 | EdgarWright

简  介  

  过度沉湎酒精、年届不惑的盖瑞·金(西蒙·佩吉 Simon Pegg 饰),突然间想起20年前青春时代一件引以为豪但未竟的浪荡事,于是相继找来如今已经有了各自家庭和事业的好伙伴奥利弗·张伯伦(马丁·弗瑞曼 Martin Freeman 饰)、彼得·佩吉(埃迪·马森 Eddie Marsan 饰)、史蒂文·普林斯(帕迪·康斯戴恩 Paddy Considine 饰)和安迪·奈特利(尼克·弗罗斯特 Nick Frost 饰)。他们相约返回故乡纽顿哈芬,试图再次找回通宵5人、12间酒吧、60杯啤酒的快乐时光。小镇一如既往,几乎没有什么变化,但是镇上的人似乎全然不记得这几个老男孩。
  在盖瑞的引领下,起初一切还比较正常,可当夜幕降临之后,诡异事件交替上演,盖瑞等人发现,他们仿佛不知不觉步入某种超自然的圈套之中……

获奖情况  

  第19届美国评论家选择电影奖(2014)
  最佳喜剧片(提名)
  喜剧片最佳男主角(提名) 西蒙·佩吉

  第4届豆瓣电影鑫像奖(2014)
  鑫豆单元 最佳喜剧片(提名)
  1. Video
  2. ID                                       : 1
  3. Format                                   : AVC
  4. Format/Info                              : Advanced Video Codec
  5. Format profile                           : <a href="/cdn-cgi/l/email-protection" class="__cf_email__" data-cfemail="2860414f4068641d0619">[email protected]</a>
  6. Format settings                          : CABAC / 5 Ref Frames
  7. Format settings, CABAC                   : Yes
  8. Format settings, Reference frames        : 5 frames
  9. Codec ID                                 : V_MPEG4/ISO/AVC
  10. Duration                                 : 1 h 49 min
  11. Bit rate                                 : 57.2 Mb/s
  12. Width                                    : 3 840 pixels
  13. Height                                   : 1 634 pixels
  14. Display aspect ratio                     : 2.35:1
  15. Frame rate mode                          : Constant
  16. Frame rate                               : 23.976 (24000/1001) FPS
  17. Color space                              : YUV
  18. Chroma subsampling                       : 4:2:0
  19. Bit depth                                : 8 bits
  20. Scan type                                : Progressive
  21. Bits/(Pixel*Frame)                       : 0.380
  22. Stream size                              : 43.6 GiB (89%)
  23. Title                                    : The.Worlds.End.2013.2160p.BluRay.x264.8bit.SDR.DTS-X.7.1-SWTYBLZ
  24. Writing library                          : x264 core 157 r2935 545de2f
  25. Encoding settings                        : cabac=1 / ref=5 / deblock=1:-1:-1 / analyse=0x3:0x113 / me=umh / subme=10 / psy=1 / psy_rd=1.00:0.15 / mixed_ref=1 / me_range=48 / chroma_me=1 / trellis=2 / 8x8dct=1 / cqm=0 / deadzone=21,11 / fast_pskip=1 / chroma_qp_offset=-3 / threads=48 / lookahead_threads=4 / sliced_threads=0 / nr=0 / decimate=0 / interlaced=0 / bluray_compat=0 / constrained_intra=0 / bframes=3 / b_pyramid=2 / b_adapt=2 / b_bias=0 / direct=3 / weightb=1 / open_gop=0 / weightp=2 / keyint=250 / keyint_min=23 / scenecut=40 / intra_refresh=0 / rc_lookahead=50 / rc=crf / mbtree=1 / crf=18.0 / qcomp=0.60 / qpmin=0 / qpmax=69 / qpstep=4 / ip_ratio=1.40 / aq=1:1.00
  26. Language                                 : English
  27. Default                                  : Yes
  28. Forced                                   : No

  29. Audio #1
  30. ID                                       : 2
  31. Format                                   : DTS XLL X
  32. Format/Info                              : Digital Theater Systems
  33. Commercial name                          : DTS-HD Master Audio
  34. Codec ID                                 : A_DTS
  35. Duration                                 : 1 h 49 min
  36. Bit rate mode                            : Variable
  37. Bit rate                                 : 6 418 kb/s
  38. Channel(s)                               : 8 channels
  39. Channel(s)_Original                      : Object Based
  40. Channel layout                           : Object Based
  41. Sampling rate                            : 48.0 kHz
  42. Frame rate                               : 93.750 FPS (512 SPF)
  43. Bit depth                                : 24 bits
  44. Stream size                              : 4.89 GiB (10%)
  45. Title                                    : The.Worlds.End.2013.2160p.BluRay.x264.8bit.SDR.DTS-X.7.1-SWTYBLZ
  46. Language                                 : English
  47. Default                                  : Yes
  48. Forced                                   : No

  49. Audio #2
  50. ID                                       : 3
  51. Format                                   : AC-3
  52. Format/Info                              : Audio Coding 3
  53. Commercial name                          : Dolby Digital
  54. Codec ID                                 : A_AC3
  55. Duration                                 : 1 h 49 min
  56. Bit rate mode                            : Constant
  57. Bit rate                                 : 640 kb/s
  58. Channel(s)                               : 6 channels
  59. Channel layout                           : L R C LFE Ls Rs
  60. Sampling rate                            : 48.0 kHz
  61. Frame rate                               : 31.250 FPS (1536 SPF)
  62. Bit depth                                : 16 bits
  63. Compression mode                         : Lossy
  64. Stream size                              : 499 MiB (1%)
  65. Title                                    : The.Worlds.End.2013.2160p.BluRay.x264.8bit.SDR.DTS-X.7.1-SWTYBLZ
  66. Language                                 : English
  67. Service kind                             : Complete Main
  68. Default                                  : No
  69. Forced                                   : No

  70. Text #1
  71. ID                                       : 4
  72. Format                                   : UTF-8
  73. Codec ID                                 : S_TEXT/UTF8
  74. Codec ID/Info                            : UTF-8 Plain Text
  75. Duration                                 : 1 h 42 min
  76. Bit rate                                 : 83 b/s
  77. Count of elements                        : 1731
  78. Stream size                              : 62.7 KiB (0%)
  79. Title                                    : English-SRT
  80. Language                                 : English
  81. Default                                  : Yes
  82. Forced                                   : No

  83. Text #2
  84. ID                                       : 5
  85. Format                                   : PGS
  86. Muxing mode                              : zlib
  87. Codec ID                                 : S_HDMV/PGS
  88. Codec ID/Info                            : Picture based subtitle format used on BDs/HD-DVDs
  89. Duration                                 : 1 h 43 min
  90. Bit rate                                 : 56.9 kb/s
  91. Count of elements                        : 3726
  92. Stream size                              : 42.1 MiB (0%)
  93. Title                                    : English-SDH-PGS
  94. Language                                 : English
  95. Default                                  : No
  96. Forced                                   : No

  97. Text #3
  98. ID                                       : 6
  99. Format                                   : PGS
  100. Muxing mode                              : zlib
  101. Codec ID                                 : S_HDMV/PGS
  102. Codec ID/Info                            : Picture based subtitle format used on BDs/HD-DVDs
  103. Duration                                 : 1 h 48 min
  104. Bit rate                                 : 39.2 kb/s
  105. Count of elements                        : 3714
  106. Stream size                              : 30.4 MiB (0%)
  107. Title                                    : French-PGS
  108. Language                                 : French
  109. Default                                  : No
  110. Forced                                   : No

  111. Text #4
  112. ID                                       : 7
  113. Format                                   : PGS
  114. Muxing mode                              : zlib
  115. Codec ID                                 : S_HDMV/PGS
  116. Codec ID/Info                            : Picture based subtitle format used on BDs/HD-DVDs
  117. Duration                                 : 1 h 42 min
  118. Bit rate                                 : 34.3 kb/s
  119. Count of elements                        : 3801
  120. Stream size                              : 25.3 MiB (0%)
  121. Title                                    : Japanese-PGS
  122. Language                                 : Japanese
  123. Default                                  : No
  124. Forced                                   : No

  125. Text #5
  126. ID                                       : 8
  127. Format                                   : PGS
  128. Muxing mode                              : zlib
  129. Codec ID                                 : S_HDMV/PGS
  130. Codec ID/Info                            : Picture based subtitle format used on BDs/HD-DVDs
  131. Duration                                 : 1 h 48 min
  132. Bit rate                                 : 46.9 kb/s
  133. Count of elements                        : 3440
  134. Stream size                              : 36.4 MiB (0%)
  135. Title                                    : Portuguese-PGS
  136. Language                                 : Portuguese
  137. Default                                  : No
  138. Forced                                   : No

  139. Text #6
  140. ID                                       : 9
  141. Format                                   : PGS
  142. Muxing mode                              : zlib
  143. Codec ID                                 : S_HDMV/PGS
  144. Codec ID/Info                            : Picture based subtitle format used on BDs/HD-DVDs
  145. Duration                                 : 1 h 42 min
  146. Bit rate                                 : 49.7 kb/s
  147. Count of elements                        : 3434
  148. Stream size                              : 36.6 MiB (0%)
  149. Title                                    : Spanish-PGS
  150. Language                                 : Spanish
  151. Default                                  : No
  152. Forced                                   : No

  153. Menu
  154. 00:00:00.000                             : en:Chapter 1
  155. 00:05:38.964                             : en:Chapter 2
  156. 00:10:33.675                             : en:Chapter 3
  157. 00:15:35.434                             : en:Chapter 4
  158. 00:19:57.363                             : en:Chapter 5
  159. 00:25:24.648                             : en:Chapter 6
  160. 00:30:07.848                             : en:Chapter 7
  161. 00:36:10.418                             : en:Chapter 8
  162. 00:42:40.933                             : en:Chapter 9
  163. 00:46:17.900                             : en:Chapter 10
  164. 00:50:20.684                             : en:Chapter 11
  165. 00:57:21.396                             : en:Chapter 12
  166. 01:02:29.871                             : en:Chapter 13
  167. 01:06:31.404                             : en:Chapter 14
  168. 01:12:17.792                             : en:Chapter 15
  169. 01:18:37.671                             : en:Chapter 16
  170. 01:23:51.860                             : en:Chapter 17
  171. 01:26:46.451                             : en:Chapter 18
  172. 01:35:17.420                             : en:Chapter 19
  173. 01:42:20.885                             : en:Chapter 20
复制代码

世界尽头/世界终极 The.Worlds.End.2013.2160p.BluRay.x264.8bit.SDR.DTS-X.7.1-SWTYBLZ 49.25GB-2.png 世界尽头/世界终极 The.Worlds.End.2013.2160p.BluRay.x264.8bit.SDR.DTS-X.7.1-SWTYBLZ 49.25GB-3.png 世界尽头/世界终极 The.Worlds.End.2013.2160p.BluRay.x264.8bit.SDR.DTS-X.7.1-SWTYBLZ 49.25GB-4.png 世界尽头/世界终极 The.Worlds.End.2013.2160p.BluRay.x264.8bit.SDR.DTS-X.7.1-SWTYBLZ 49.25GB-5.png 世界尽头/世界终极 The.Worlds.End.2013.2160p.BluRay.x264.8bit.SDR.DTS-X.7.1-SWTYBLZ 49.25GB-6.png 世界尽头/世界终极 The.Worlds.End.2013.2160p.BluRay.x264.8bit.SDR.DTS-X.7.1-SWTYBLZ 49.25GB-7.png






开通VIP免费下载本站所有资源---点这里
新手必看:资源下载、资源播放、字幕使用、等常见问题---点这里
回复

使用道具 举报

发表于 昨天 09:23 | 显示全部楼层
很喜欢这种科幻片,谢谢楼主
开通VIP免费下载本站所有资源---点这里
新手必看:资源下载、资源播放、字幕使用、等常见问题---点这里
回复 支持 反对

使用道具 举报

懒得打字嘛,点击右侧快捷回复 【右侧内容,后台自定义】
您需要登录后才可以回帖 登录 | 立即加入

本版积分规则

现在加入蓝光电影网,注册一个账号

QQ| 手机版|小黑屋| 蓝光电影网 |网站地图

Copyright © 2015-2019 Comsenz Inc.  Template by 蓝光电影网 All Rights Reserved.

Powered by 蓝光电影网 X3.4

特别声明:本站所有资源均由网上收集而来,版权归原影音公司所有,如果侵犯了你的权益,请通知我们,我们会及时删除侵权内容.

快速回复 返回顶部 返回列表