找回密码

蓝光电影网

查看: 73|回复: 1

[10bit.SDR] 世界尽头/世界终极 The.Worlds.End.2013.2160p.BluRay.x265.10bit.SDR.DTS-X.7.1-SWTYBLZ 40.93GB

[复制链接]

 成长值: 1345

发表于 2019-9-7 17:01:55 | 显示全部楼层 |阅读模式
世界尽头/世界终极 The.Worlds.End.2013.2160p.BluRay.x265.10bit.SDR.DTS-X.7.1-SWTYBLZ 40.93GB-1.png

译  名 世界尽头 / 世界终极 / 世界终点 / 世芥末日(台) / 醉后末日(台) / 醉爆末日党(港)
片  名 The World's End
年  代 2013
产  地 英国
类  别 喜剧 / 动作 / 科幻
语  言 英语
上映日期 2013-07-19(英国)
IMDb评分  7.0/10 from 239493 users
IMDb链接  http://www.imdb.com/title/tt1213663
豆瓣评分 7.4/10 from 44172 users
豆瓣链接 https://movie.douban.com/subject/3026572/
片  长 109分钟
导  演 埃德加·赖特 Edgar Wright
编  剧 西蒙·佩吉 Simon Pegg / 埃德加·赖特 Edgar Wright
主  演 西蒙·佩吉 Simon Pegg
       尼克·弗罗斯特 Nick Frost
       帕迪·康斯戴恩 Paddy Considine
       马丁·弗瑞曼 Martin Freeman
       埃迪·马森 Eddie Marsan
       罗莎蒙德·派克 Rosamund Pike
       托马斯·洛 Thomas Law
       Zachary Bailess
       Jasper Levine
       James Tarpey
       Luke Bromley
       Sophie Evans
       Samantha White
       Rose Reynolds
       Richard Hadfield
       Flora Slorach
       Francesca Reidie
       Charlotte Reidie
       大卫·布拉德利 David Bradley
       迈克尔·史麦利 Michael Smiley
       皮尔斯·布鲁斯南 Pierce Brosnan


标  签 英国 | 喜剧 | 科幻 | SimonPegg | 英国电影 | 2013 | 黑色幽默 | EdgarWright

简  介  

  过度沉湎酒精、年届不惑的盖瑞·金(西蒙·佩吉 Simon Pegg 饰),突然间想起20年前青春时代一件引以为豪但未竟的浪荡事,于是相继找来如今已经有了各自家庭和事业的好伙伴奥利弗·张伯伦(马丁·弗瑞曼 Martin Freeman 饰)、彼得·佩吉(埃迪·马森 Eddie Marsan 饰)、史蒂文·普林斯(帕迪·康斯戴恩 Paddy Considine 饰)和安迪·奈特利(尼克·弗罗斯特 Nick Frost 饰)。他们相约返回故乡纽顿哈芬,试图再次找回通宵5人、12间酒吧、60杯啤酒的快乐时光。小镇一如既往,几乎没有什么变化,但是镇上的人似乎全然不记得这几个老男孩。
  在盖瑞的引领下,起初一切还比较正常,可当夜幕降临之后,诡异事件交替上演,盖瑞等人发现,他们仿佛不知不觉步入某种超自然的圈套之中……

获奖情况  

  第19届美国评论家选择电影奖(2014)
  最佳喜剧片(提名)
  喜剧片最佳男主角(提名) 西蒙·佩吉

  第4届豆瓣电影鑫像奖(2014)
  鑫豆单元 最佳喜剧片(提名)
  1. Video
  2. ID                                       : 1
  3. Format                                   : HEVC
  4. Format/Info                              : High Efficiency Video Coding
  5. Format profile                           : Main <a href="/cdn-cgi/l/email-protection" class="__cf_email__" data-cfemail="deefee9e92ebf0ef">[email protected]</a>@High
  6. Codec ID                                 : V_MPEGH/ISO/HEVC
  7. Duration                                 : 1 h 49 min
  8. Bit rate                                 : 46.3 Mb/s
  9. Width                                    : 3 840 pixels
  10. Height                                   : 1 634 pixels
  11. Display aspect ratio                     : 2.35:1
  12. Frame rate mode                          : Constant
  13. Frame rate                               : 23.976 (24000/1001) FPS
  14. Color space                              : YUV
  15. Chroma subsampling                       : 4:2:0
  16. Bit depth                                : 10 bits
  17. Bits/(Pixel*Frame)                       : 0.308
  18. Stream size                              : 35.3 GiB (87%)
  19. Title                                    : The.Worlds.End.2013.2160p.BluRay.x265.10bit.SDR.DTS-X.7.1-SWTYBLZ
  20. Writing library                          : x265 3.0ed72af837053:[Windows][GCC 8.2.0][64 bit] 10bit
  21. Encoding settings                        : cpuid=1111039 / frame-threads=16 / numa-pools=44,44 / wpp / no-pmode / no-pme / no-psnr / no-ssim / log-level=2 / input-csp=1 / input-res=3840x1634 / interlace=0 / total-frames=156892 / level-idc=51 / high-tier=1 / uhd-bd=0 / ref=3 / no-allow-non-conformance / repeat-headers / annexb / aud / hrd / info / hash=0 / no-temporal-layers / no-open-gop / min-keyint=1 / keyint=24 / gop-lookahead=0 / bframes=4 / b-adapt=2 / b-pyramid / bframe-bias=0 / rc-lookahead=25 / lookahead-slices=4 / scenecut=40 / radl=0 / no-splice / no-intra-refresh / ctu=64 / min-cu-size=8 / no-rect / no-amp / max-tu-size=32 / tu-inter-depth=1 / tu-intra-depth=1 / limit-tu=0 / rdoq-level=0 / dynamic-rd=0.00 / no-ssim-rd / signhide / no-tskip / nr-intra=0 / nr-inter=0 / no-constrained-intra / strong-intra-smoothing / max-merge=2 / limit-refs=3 / no-limit-modes / me=1 / subme=2 / merange=57 / temporal-mvp / weightp / no-weightb / no-analyze-src-pics / deblock=0:0 / no-sao / no-sao-non-deblock / rd=3 / no-early-skip / rskip / no-fast-intra / no-tskip-fast / no-cu-lossless / no-b-intra / no-splitrd-skip / rdpenalty=0 / psy-rd=2.00 / psy-rdoq=0.00 / no-rd-refine / no-lossless / cbqpoffs=0 / crqpoffs=0 / rc=crf / crf=16.0 / qcomp=0.60 / qpstep=4 / stats-write=0 / stats-read=0 / vbv-maxrate=160000 / vbv-bufsize=160000 / vbv-init=0.9 / crf-max=0.0 / crf-min=0.0 / ipratio=1.40 / pbratio=1.30 / aq-mode=1 / aq-strength=1.00 / cutree / zone-count=0 / no-strict-cbr / qg-size=32 / no-rc-grain / qpmax=69 / qpmin=0 / no-const-vbv / sar=1 / overscan=0 / videoformat=5 / range=0 / colorprim=2 / transfer=2 / colormatrix=2 / chromaloc=0 / display-window=0 / max-cll=0,0 / min-luma=0 / max-luma=1023 / log2-max-poc-lsb=8 / vui-timing-info / vui-hrd-info / slices=1 / opt-qp-pps / opt-ref-list-length-pps / no-multi-pass-opt-rps / scenecut-bias=0.05 / no-opt-cu-delta-qp / no-aq-motion / no-hdr / no-hdr-opt / no-dhdr10-opt / no-idr-recovery-sei / analysis-reuse-level=5 / scale-factor=0 / refine-intra=0 / refine-inter=0 / refine-mv=0 / refine-ctu-distortion=0 / no-limit-sao / ctu-info=0 / no-lowpass-dct / refine-analysis-type=0 / copy-pic=1 / max-ausize-factor=1.0 / no-dynamic-refine / no-single-sei / no-hevc-aq / qp-adaptation-range=1.00
  22. Default                                  : Yes
  23. Forced                                   : No

  24. Audio #1
  25. ID                                       : 2
  26. Format                                   : DTS XLL X
  27. Format/Info                              : Digital Theater Systems
  28. Commercial name                          : DTS-HD Master Audio
  29. Codec ID                                 : A_DTS
  30. Duration                                 : 1 h 49 min
  31. Bit rate mode                            : Variable
  32. Bit rate                                 : 6 418 kb/s
  33. Channel(s)                               : 8 channels
  34. Channel(s)_Original                      : Object Based
  35. Channel layout                           : Object Based
  36. Sampling rate                            : 48.0 kHz
  37. Frame rate                               : 93.750 FPS (512 SPF)
  38. Bit depth                                : 24 bits
  39. Stream size                              : 4.89 GiB (12%)
  40. Title                                    : The.Worlds.End.2013.2160p.BluRay.x265.10bit.SDR.DTS-X.7.1-SWTYBLZ
  41. Language                                 : English
  42. Default                                  : Yes
  43. Forced                                   : No

  44. Audio #2
  45. ID                                       : 3
  46. Format                                   : AC-3
  47. Format/Info                              : Audio Coding 3
  48. Commercial name                          : Dolby Digital
  49. Codec ID                                 : A_AC3
  50. Duration                                 : 1 h 49 min
  51. Bit rate mode                            : Constant
  52. Bit rate                                 : 640 kb/s
  53. Channel(s)                               : 6 channels
  54. Channel layout                           : L R C LFE Ls Rs
  55. Sampling rate                            : 48.0 kHz
  56. Frame rate                               : 31.250 FPS (1536 SPF)
  57. Bit depth                                : 16 bits
  58. Compression mode                         : Lossy
  59. Stream size                              : 499 MiB (1%)
  60. Title                                    : The.Worlds.End.2013.2160p.BluRay.x265.10bit.SDR.DTS-X.7.1-SWTYBLZ
  61. Language                                 : English
  62. Service kind                             : Complete Main
  63. Default                                  : No
  64. Forced                                   : No

  65. Text #1
  66. ID                                       : 4
  67. Format                                   : UTF-8
  68. Codec ID                                 : S_TEXT/UTF8
  69. Codec ID/Info                            : UTF-8 Plain Text
  70. Duration                                 : 1 h 42 min
  71. Bit rate                                 : 83 b/s
  72. Count of elements                        : 1731
  73. Stream size                              : 62.7 KiB (0%)
  74. Title                                    : English-SRT
  75. Language                                 : English
  76. Default                                  : Yes
  77. Forced                                   : No

  78. Text #2
  79. ID                                       : 5
  80. Format                                   : PGS
  81. Muxing mode                              : zlib
  82. Codec ID                                 : S_HDMV/PGS
  83. Codec ID/Info                            : Picture based subtitle format used on BDs/HD-DVDs
  84. Duration                                 : 1 h 43 min
  85. Bit rate                                 : 56.9 kb/s
  86. Count of elements                        : 3726
  87. Stream size                              : 42.1 MiB (0%)
  88. Title                                    : English-SDH-PGS
  89. Language                                 : English
  90. Default                                  : No
  91. Forced                                   : No

  92. Text #3
  93. ID                                       : 6
  94. Format                                   : PGS
  95. Muxing mode                              : zlib
  96. Codec ID                                 : S_HDMV/PGS
  97. Codec ID/Info                            : Picture based subtitle format used on BDs/HD-DVDs
  98. Duration                                 : 1 h 48 min
  99. Bit rate                                 : 39.2 kb/s
  100. Count of elements                        : 3714
  101. Stream size                              : 30.4 MiB (0%)
  102. Title                                    : French-PGS
  103. Language                                 : French
  104. Default                                  : No
  105. Forced                                   : No

  106. Text #4
  107. ID                                       : 7
  108. Format                                   : PGS
  109. Muxing mode                              : zlib
  110. Codec ID                                 : S_HDMV/PGS
  111. Codec ID/Info                            : Picture based subtitle format used on BDs/HD-DVDs
  112. Duration                                 : 1 h 42 min
  113. Bit rate                                 : 34.3 kb/s
  114. Count of elements                        : 3801
  115. Stream size                              : 25.3 MiB (0%)
  116. Title                                    : Japanese-PGS
  117. Language                                 : Japanese
  118. Default                                  : No
  119. Forced                                   : No

  120. Text #5
  121. ID                                       : 8
  122. Format                                   : PGS
  123. Muxing mode                              : zlib
  124. Codec ID                                 : S_HDMV/PGS
  125. Codec ID/Info                            : Picture based subtitle format used on BDs/HD-DVDs
  126. Duration                                 : 1 h 48 min
  127. Bit rate                                 : 46.9 kb/s
  128. Count of elements                        : 3440
  129. Stream size                              : 36.4 MiB (0%)
  130. Title                                    : Portuguese-PGS
  131. Language                                 : Portuguese
  132. Default                                  : No
  133. Forced                                   : No

  134. Text #6
  135. ID                                       : 9
  136. Format                                   : PGS
  137. Muxing mode                              : zlib
  138. Codec ID                                 : S_HDMV/PGS
  139. Codec ID/Info                            : Picture based subtitle format used on BDs/HD-DVDs
  140. Duration                                 : 1 h 42 min
  141. Bit rate                                 : 49.7 kb/s
  142. Count of elements                        : 3434
  143. Stream size                              : 36.6 MiB (0%)
  144. Title                                    : Spanish-PGS
  145. Language                                 : Spanish
  146. Default                                  : No
  147. Forced                                   : No

  148. Menu
  149. 00:00:00.000                             : en:Chapter 1
  150. 00:05:38.964                             : en:Chapter 2
  151. 00:10:33.675                             : en:Chapter 3
  152. 00:15:35.434                             : en:Chapter 4
  153. 00:19:57.363                             : en:Chapter 5
  154. 00:25:24.648                             : en:Chapter 6
  155. 00:30:07.848                             : en:Chapter 7
  156. 00:36:10.418                             : en:Chapter 8
  157. 00:42:40.933                             : en:Chapter 9
  158. 00:46:17.900                             : en:Chapter 10
  159. 00:50:20.684                             : en:Chapter 11
  160. 00:57:21.396                             : en:Chapter 12
  161. 01:02:29.871                             : en:Chapter 13
  162. 01:06:31.404                             : en:Chapter 14
  163. 01:12:17.792                             : en:Chapter 15
  164. 01:18:37.671                             : en:Chapter 16
  165. 01:23:51.860                             : en:Chapter 17
  166. 01:26:46.451                             : en:Chapter 18
  167. 01:35:17.420                             : en:Chapter 19
  168. 01:42:20.885                             : en:Chapter 20
复制代码

世界尽头/世界终极 The.Worlds.End.2013.2160p.BluRay.x265.10bit.SDR.DTS-X.7.1-SWTYBLZ 40.93GB-2.png 世界尽头/世界终极 The.Worlds.End.2013.2160p.BluRay.x265.10bit.SDR.DTS-X.7.1-SWTYBLZ 40.93GB-3.png 世界尽头/世界终极 The.Worlds.End.2013.2160p.BluRay.x265.10bit.SDR.DTS-X.7.1-SWTYBLZ 40.93GB-4.png 世界尽头/世界终极 The.Worlds.End.2013.2160p.BluRay.x265.10bit.SDR.DTS-X.7.1-SWTYBLZ 40.93GB-5.png 世界尽头/世界终极 The.Worlds.End.2013.2160p.BluRay.x265.10bit.SDR.DTS-X.7.1-SWTYBLZ 40.93GB-7.png






开通VIP免费下载本站所有资源---点这里
新手必看:资源下载、资源播放、字幕使用、等常见问题---点这里
回复

使用道具 举报

发表于 2019-9-7 17:58:29 | 显示全部楼层
好电影,谢谢分享!!
开通VIP免费下载本站所有资源---点这里
新手必看:资源下载、资源播放、字幕使用、等常见问题---点这里
回复 支持 反对

使用道具 举报

懒得打字嘛,点击右侧快捷回复 【右侧内容,后台自定义】
您需要登录后才可以回帖 登录 | 立即加入

本版积分规则

现在加入蓝光电影网,注册一个账号

QQ| 手机版|小黑屋| 蓝光电影网 |网站地图

Copyright © 2015-2019 Comsenz Inc.  Template by 蓝光电影网 All Rights Reserved.

Powered by 蓝光电影网 X3.4

特别声明:本站所有资源均由网上收集而来,版权归原影音公司所有,如果侵犯了你的权益,请通知我们,我们会及时删除侵权内容.

快速回复 返回顶部 返回列表