找回密码

蓝光电影网

查看: 100|回复: 2

[REMUX.HEVC] 世界尽头/世界终极 The.Worlds.End.2013.2160p.BluRay.REMUX.HEVC.DTS-X.7.1-FGT 54.85GB

[复制链接]

 成长值: 1345

发表于 2019-9-7 17:00:57 | 显示全部楼层 |阅读模式
世界尽头/世界终极 The.Worlds.End.2013.2160p.BluRay.REMUX.HEVC.DTS-X.7.1-FGT 54.85GB-1.png

译  名 世界尽头 / 世界终极 / 世界终点 / 世芥末日(台) / 醉后末日(台) / 醉爆末日党(港)
片  名 The World's End
年  代 2013
产  地 英国
类  别 喜剧 / 动作 / 科幻
语  言 英语
上映日期 2013-07-19(英国)
IMDb评分  7.0/10 from 239493 users
IMDb链接  http://www.imdb.com/title/tt1213663
豆瓣评分 7.4/10 from 44172 users
豆瓣链接 https://movie.douban.com/subject/3026572/
片  长 109分钟
导  演 埃德加·赖特 Edgar Wright
编  剧 西蒙·佩吉 Simon Pegg / 埃德加·赖特 Edgar Wright
主  演 西蒙·佩吉 Simon Pegg
       尼克·弗罗斯特 Nick Frost
       帕迪·康斯戴恩 Paddy Considine
       马丁·弗瑞曼 Martin Freeman
       埃迪·马森 Eddie Marsan
       罗莎蒙德·派克 Rosamund Pike
       托马斯·洛 Thomas Law
       Zachary Bailess
       Jasper Levine
       James Tarpey
       Luke Bromley
       Sophie Evans
       Samantha White
       Rose Reynolds
       Richard Hadfield
       Flora Slorach
       Francesca Reidie
       Charlotte Reidie
       大卫·布拉德利 David Bradley
       迈克尔·史麦利 Michael Smiley
       皮尔斯·布鲁斯南 Pierce Brosnan


标  签 英国 | 喜剧 | 科幻 | SimonPegg | 英国电影 | 2013 | 黑色幽默 | EdgarWright

简  介  

  过度沉湎酒精、年届不惑的盖瑞·金(西蒙·佩吉 Simon Pegg 饰),突然间想起20年前青春时代一件引以为豪但未竟的浪荡事,于是相继找来如今已经有了各自家庭和事业的好伙伴奥利弗·张伯伦(马丁·弗瑞曼 Martin Freeman 饰)、彼得·佩吉(埃迪·马森 Eddie Marsan 饰)、史蒂文·普林斯(帕迪·康斯戴恩 Paddy Considine 饰)和安迪·奈特利(尼克·弗罗斯特 Nick Frost 饰)。他们相约返回故乡纽顿哈芬,试图再次找回通宵5人、12间酒吧、60杯啤酒的快乐时光。小镇一如既往,几乎没有什么变化,但是镇上的人似乎全然不记得这几个老男孩。
  在盖瑞的引领下,起初一切还比较正常,可当夜幕降临之后,诡异事件交替上演,盖瑞等人发现,他们仿佛不知不觉步入某种超自然的圈套之中……

获奖情况  

  第19届美国评论家选择电影奖(2014)
  最佳喜剧片(提名)
  喜剧片最佳男主角(提名) 西蒙·佩吉

  第4届豆瓣电影鑫像奖(2014)
  鑫豆单元 最佳喜剧片(提名)
  1. Video
  2. ID                                       : 1
  3. Format                                   : HEVC
  4. Format/Info                              : High Efficiency Video Coding
  5. Format profile                           : Main <a href="/cdn-cgi/l/email-protection" class="__cf_email__" data-cfemail="a49594e4e8918a95">[email protected]</a>@High
  6. HDR format                               : SMPTE ST 2094 App 4, Version 1, HDR10+ Profile B compatible
  7. Codec ID                                 : V_MPEGH/ISO/HEVC
  8. Duration                                 : 1 h 49 min
  9. Bit rate                                 : 61.6 Mb/s
  10. Width                                    : 3 840 pixels
  11. Height                                   : 2 160 pixels
  12. Display aspect ratio                     : 16:9
  13. Frame rate mode                          : Constant
  14. Frame rate                               : 23.976 (24000/1001) FPS
  15. Color space                              : YUV
  16. Chroma subsampling                       : 4:2:0 (Type 2)
  17. Bit depth                                : 10 bits
  18. Bits/(Pixel*Frame)                       : 0.310
  19. Stream size                              : 47.0 GiB (86%)
  20. Title                                    : The.Worlds.End.2013.2160p.BluRay.REMUX.HEVC.DTS-X.7.1-FGT
  21. Writing library                          : ATEME Titan File 3.9.0 (4.9.0.0)        
  22. Language                                 : English
  23. Default                                  : No
  24. Forced                                   : No
  25. Color range                              : Limited
  26. Color primaries                          : BT.2020
  27. Transfer characteristics                 : PQ
  28. Matrix coefficients                      : BT.2020 non-constant
  29. Mastering display color primaries        : Display P3
  30. Mastering display luminance              : min: 0.0050 cd/m2, max: 1000 cd/m2
  31. Maximum Content Light Level              : 1000 cd/m2
  32. Maximum Frame-Average Light Level        : 184 cd/m2

  33. Audio #1
  34. ID                                       : 2
  35. Format                                   : DTS XLL X
  36. Format/Info                              : Digital Theater Systems
  37. Commercial name                          : DTS-HD Master Audio
  38. Codec ID                                 : A_DTS
  39. Duration                                 : 1 h 49 min
  40. Bit rate mode                            : Variable
  41. Bit rate                                 : 6 418 kb/s
  42. Channel(s)                               : 8 channels
  43. Channel(s)_Original                      : Object Based
  44. Channel layout                           : Object Based
  45. Sampling rate                            : 48.0 kHz
  46. Frame rate                               : 93.750 FPS (512 SPF)
  47. Bit depth                                : 24 bits
  48. Stream size                              : 4.89 GiB (9%)
  49. Title                                    : The.Worlds.End.2013.2160p.BluRay.REMUX.HEVC.DTS-X.7.1-FGT
  50. Language                                 : English
  51. Default                                  : Yes
  52. Forced                                   : No

  53. Audio #2
  54. ID                                       : 3
  55. Format                                   : DTS
  56. Format/Info                              : Digital Theater Systems
  57. Codec ID                                 : A_DTS
  58. Duration                                 : 1 h 49 min
  59. Bit rate mode                            : Constant
  60. Bit rate                                 : 768 kb/s
  61. Channel(s)                               : 6 channels
  62. Channel layout                           : C L R Ls Rs LFE
  63. Sampling rate                            : 48.0 kHz
  64. Frame rate                               : 93.750 FPS (512 SPF)
  65. Bit depth                                : 24 bits
  66. Compression mode                         : Lossy
  67. Stream size                              : 599 MiB (1%)
  68. Title                                    : The.Worlds.End.2013.2160p.BluRay.REMUX.HEVC.DTS-X.7.1-FGT
  69. Language                                 : French
  70. Default                                  : No
  71. Forced                                   : No

  72. Audio #3
  73. ID                                       : 4
  74. Format                                   : DTS
  75. Format/Info                              : Digital Theater Systems
  76. Codec ID                                 : A_DTS
  77. Duration                                 : 1 h 49 min
  78. Bit rate mode                            : Constant
  79. Bit rate                                 : 768 kb/s
  80. Channel(s)                               : 6 channels
  81. Channel layout                           : C L R Ls Rs LFE
  82. Sampling rate                            : 48.0 kHz
  83. Frame rate                               : 93.750 FPS (512 SPF)
  84. Bit depth                                : 24 bits
  85. Compression mode                         : Lossy
  86. Stream size                              : 599 MiB (1%)
  87. Title                                    : The.Worlds.End.2013.2160p.BluRay.REMUX.HEVC.DTS-X.7.1-FGT
  88. Language                                 : Spanish
  89. Default                                  : No
  90. Forced                                   : No

  91. Audio #4
  92. ID                                       : 5
  93. Format                                   : DTS
  94. Format/Info                              : Digital Theater Systems
  95. Codec ID                                 : A_DTS
  96. Duration                                 : 1 h 49 min
  97. Bit rate mode                            : Constant
  98. Bit rate                                 : 768 kb/s
  99. Channel(s)                               : 6 channels
  100. Channel layout                           : C L R Ls Rs LFE
  101. Sampling rate                            : 48.0 kHz
  102. Frame rate                               : 93.750 FPS (512 SPF)
  103. Bit depth                                : 24 bits
  104. Compression mode                         : Lossy
  105. Stream size                              : 599 MiB (1%)
  106. Title                                    : The.Worlds.End.2013.2160p.BluRay.REMUX.HEVC.DTS-X.7.1-FGT
  107. Language                                 : Japanese
  108. Default                                  : No
  109. Forced                                   : No

  110. Audio #5
  111. ID                                       : 6
  112. Format                                   : DTS
  113. Format/Info                              : Digital Theater Systems
  114. Codec ID                                 : A_DTS
  115. Duration                                 : 1 h 49 min
  116. Bit rate mode                            : Constant
  117. Bit rate                                 : 768 kb/s
  118. Channel(s)                               : 6 channels
  119. Channel layout                           : C L R Ls Rs LFE
  120. Sampling rate                            : 48.0 kHz
  121. Frame rate                               : 93.750 FPS (512 SPF)
  122. Bit depth                                : 24 bits
  123. Compression mode                         : Lossy
  124. Stream size                              : 599 MiB (1%)
  125. Title                                    : The.Worlds.End.2013.2160p.BluRay.REMUX.HEVC.DTS-X.7.1-FGT
  126. Language                                 : Portuguese
  127. Default                                  : No
  128. Forced                                   : No

  129. Audio #6
  130. ID                                       : 7
  131. Format                                   : AC-3
  132. Format/Info                              : Audio Coding 3
  133. Commercial name                          : Dolby Digital
  134. Codec ID                                 : A_AC3
  135. Duration                                 : 1 h 49 min
  136. Bit rate mode                            : Constant
  137. Bit rate                                 : 192 kb/s
  138. Channel(s)                               : 2 channels
  139. Channel layout                           : L R
  140. Sampling rate                            : 48.0 kHz
  141. Frame rate                               : 31.250 FPS (1536 SPF)
  142. Bit depth                                : 16 bits
  143. Compression mode                         : Lossy
  144. Stream size                              : 150 MiB (0%)
  145. Title                                    : The.Worlds.End.2013.2160p.BluRay.REMUX.HEVC.DTS-X.7.1-FGT
  146. Language                                 : English
  147. Service kind                             : Complete Main
  148. Default                                  : No
  149. Forced                                   : No

  150. Audio #7
  151. ID                                       : 8
  152. Format                                   : AC-3
  153. Format/Info                              : Audio Coding 3
  154. Commercial name                          : Dolby Digital
  155. Codec ID                                 : A_AC3
  156. Duration                                 : 1 h 49 min
  157. Bit rate mode                            : Constant
  158. Bit rate                                 : 192 kb/s
  159. Channel(s)                               : 2 channels
  160. Channel layout                           : L R
  161. Sampling rate                            : 48.0 kHz
  162. Frame rate                               : 31.250 FPS (1536 SPF)
  163. Bit depth                                : 16 bits
  164. Compression mode                         : Lossy
  165. Stream size                              : 150 MiB (0%)
  166. Title                                    : The.Worlds.End.2013.2160p.BluRay.REMUX.HEVC.DTS-X.7.1-FGT
  167. Language                                 : English
  168. Service kind                             : Complete Main
  169. Default                                  : No
  170. Forced                                   : No

  171. Audio #8
  172. ID                                       : 9
  173. Format                                   : AC-3
  174. Format/Info                              : Audio Coding 3
  175. Commercial name                          : Dolby Digital
  176. Codec ID                                 : A_AC3
  177. Duration                                 : 1 h 49 min
  178. Bit rate mode                            : Constant
  179. Bit rate                                 : 192 kb/s
  180. Channel(s)                               : 2 channels
  181. Channel layout                           : L R
  182. Sampling rate                            : 48.0 kHz
  183. Frame rate                               : 31.250 FPS (1536 SPF)
  184. Bit depth                                : 16 bits
  185. Compression mode                         : Lossy
  186. Stream size                              : 150 MiB (0%)
  187. Title                                    : The.Worlds.End.2013.2160p.BluRay.REMUX.HEVC.DTS-X.7.1-FGT
  188. Language                                 : English
  189. Service kind                             : Complete Main
  190. Default                                  : No
  191. Forced                                   : No

  192. Text #1
  193. ID                                       : 10
  194. Format                                   : UTF-8
  195. Codec ID                                 : S_TEXT/UTF8
  196. Codec ID/Info                            : UTF-8 Plain Text
  197. Duration                                 : 1 h 42 min
  198. Bit rate                                 : 83 b/s
  199. Count of elements                        : 1731
  200. Stream size                              : 62.7 KiB (0%)
  201. Title                                    : English-SRT
  202. Language                                 : English
  203. Default                                  : Yes
  204. Forced                                   : No

  205. Text #2
  206. ID                                       : 11
  207. Format                                   : PGS
  208. Muxing mode                              : zlib
  209. Codec ID                                 : S_HDMV/PGS
  210. Codec ID/Info                            : Picture based subtitle format used on BDs/HD-DVDs
  211. Duration                                 : 1 h 43 min
  212. Bit rate                                 : 56.9 kb/s
  213. Count of elements                        : 3726
  214. Stream size                              : 42.1 MiB (0%)
  215. Title                                    : English-PGS
  216. Language                                 : English
  217. Default                                  : No
  218. Forced                                   : No

  219. Text #3
  220. ID                                       : 12
  221. Format                                   : PGS
  222. Muxing mode                              : zlib
  223. Codec ID                                 : S_HDMV/PGS
  224. Codec ID/Info                            : Picture based subtitle format used on BDs/HD-DVDs
  225. Duration                                 : 1 h 48 min
  226. Bit rate                                 : 39.2 kb/s
  227. Count of elements                        : 3714
  228. Stream size                              : 30.4 MiB (0%)
  229. Title                                    : French-PGS
  230. Language                                 : French
  231. Default                                  : No
  232. Forced                                   : No

  233. Text #4
  234. ID                                       : 13
  235. Format                                   : PGS
  236. Muxing mode                              : zlib
  237. Codec ID                                 : S_HDMV/PGS
  238. Codec ID/Info                            : Picture based subtitle format used on BDs/HD-DVDs
  239. Duration                                 : 1 h 42 min
  240. Bit rate                                 : 49.7 kb/s
  241. Count of elements                        : 3434
  242. Stream size                              : 36.6 MiB (0%)
  243. Title                                    : Spanish-PGS
  244. Language                                 : Spanish
  245. Default                                  : No
  246. Forced                                   : No

  247. Text #5
  248. ID                                       : 14
  249. Format                                   : PGS
  250. Muxing mode                              : zlib
  251. Codec ID                                 : S_HDMV/PGS
  252. Codec ID/Info                            : Picture based subtitle format used on BDs/HD-DVDs
  253. Duration                                 : 1 h 42 min
  254. Bit rate                                 : 34.3 kb/s
  255. Count of elements                        : 3801
  256. Stream size                              : 25.3 MiB (0%)
  257. Title                                    : Japanese-PGS
  258. Language                                 : Japanese
  259. Default                                  : No
  260. Forced                                   : No

  261. Text #6
  262. ID                                       : 15
  263. Format                                   : PGS
  264. Muxing mode                              : zlib
  265. Codec ID                                 : S_HDMV/PGS
  266. Codec ID/Info                            : Picture based subtitle format used on BDs/HD-DVDs
  267. Duration                                 : 1 h 48 min
  268. Bit rate                                 : 46.9 kb/s
  269. Count of elements                        : 3440
  270. Stream size                              : 36.4 MiB (0%)
  271. Title                                    : Portuguese-PGS
  272. Language                                 : Portuguese
  273. Default                                  : No
  274. Forced                                   : No

  275. Text #7
  276. ID                                       : 16
  277. Format                                   : PGS
  278. Muxing mode                              : zlib
  279. Codec ID                                 : S_HDMV/PGS
  280. Codec ID/Info                            : Picture based subtitle format used on BDs/HD-DVDs
  281. Duration                                 : 1 h 48 min
  282. Bit rate                                 : 87.9 kb/s
  283. Count of elements                        : 4175
  284. Stream size                              : 68.5 MiB (0%)
  285. Title                                    : English-COMMENTARY-PGS
  286. Language                                 : English
  287. Default                                  : No
  288. Forced                                   : No

  289. Text #8
  290. ID                                       : 17
  291. Format                                   : PGS
  292. Muxing mode                              : zlib
  293. Codec ID                                 : S_HDMV/PGS
  294. Codec ID/Info                            : Picture based subtitle format used on BDs/HD-DVDs
  295. Duration                                 : 1 h 48 min
  296. Bit rate                                 : 73.3 kb/s
  297. Count of elements                        : 4177
  298. Stream size                              : 57.1 MiB (0%)
  299. Title                                    : French-COMMENTARY-PGS
  300. Language                                 : French
  301. Default                                  : No
  302. Forced                                   : No

  303. Text #9
  304. ID                                       : 18
  305. Format                                   : PGS
  306. Muxing mode                              : zlib
  307. Codec ID                                 : S_HDMV/PGS
  308. Codec ID/Info                            : Picture based subtitle format used on BDs/HD-DVDs
  309. Duration                                 : 1 h 48 min
  310. Bit rate                                 : 49.6 kb/s
  311. Count of elements                        : 3716
  312. Stream size                              : 38.6 MiB (0%)
  313. Title                                    : Japanese-COMMENTARY-PGS
  314. Language                                 : Japanese
  315. Default                                  : No
  316. Forced                                   : No

  317. Text #10
  318. ID                                       : 19
  319. Format                                   : PGS
  320. Muxing mode                              : zlib
  321. Codec ID                                 : S_HDMV/PGS
  322. Codec ID/Info                            : Picture based subtitle format used on BDs/HD-DVDs
  323. Duration                                 : 1 h 49 min
  324. Bit rate                                 : 75.5 kb/s
  325. Count of elements                        : 3892
  326. Stream size                              : 58.8 MiB (0%)
  327. Title                                    : English-COMMENTARY-PGS
  328. Language                                 : English
  329. Default                                  : No
  330. Forced                                   : No

  331. Text #11
  332. ID                                       : 20
  333. Format                                   : PGS
  334. Muxing mode                              : zlib
  335. Codec ID                                 : S_HDMV/PGS
  336. Codec ID/Info                            : Picture based subtitle format used on BDs/HD-DVDs
  337. Duration                                 : 1 h 49 min
  338. Bit rate                                 : 67.9 kb/s
  339. Count of elements                        : 4006
  340. Stream size                              : 52.9 MiB (0%)
  341. Title                                    : French-COMMENTARY-PGS
  342. Language                                 : French
  343. Default                                  : No
  344. Forced                                   : No

  345. Text #12
  346. ID                                       : 21
  347. Format                                   : PGS
  348. Muxing mode                              : zlib
  349. Codec ID                                 : S_HDMV/PGS
  350. Codec ID/Info                            : Picture based subtitle format used on BDs/HD-DVDs
  351. Duration                                 : 1 h 48 min
  352. Bit rate                                 : 41.7 kb/s
  353. Count of elements                        : 3153
  354. Stream size                              : 32.5 MiB (0%)
  355. Title                                    : Japanese-COMMENTARY-PGS
  356. Language                                 : Japanese
  357. Default                                  : No
  358. Forced                                   : No

  359. Text #13
  360. ID                                       : 22
  361. Format                                   : PGS
  362. Muxing mode                              : zlib
  363. Codec ID                                 : S_HDMV/PGS
  364. Codec ID/Info                            : Picture based subtitle format used on BDs/HD-DVDs
  365. Duration                                 : 1 h 48 min
  366. Bit rate                                 : 82.4 kb/s
  367. Count of elements                        : 5205
  368. Stream size                              : 64.2 MiB (0%)
  369. Title                                    : English-COMMENTARY-PGS
  370. Language                                 : English
  371. Default                                  : No
  372. Forced                                   : No

  373. Text #14
  374. ID                                       : 23
  375. Format                                   : PGS
  376. Muxing mode                              : zlib
  377. Codec ID                                 : S_HDMV/PGS
  378. Codec ID/Info                            : Picture based subtitle format used on BDs/HD-DVDs
  379. Duration                                 : 1 h 48 min
  380. Bit rate                                 : 72.4 kb/s
  381. Count of elements                        : 5313
  382. Stream size                              : 56.4 MiB (0%)
  383. Title                                    : French-COMMENTARY-PGS
  384. Language                                 : French
  385. Default                                  : No
  386. Forced                                   : No

  387. Text #15
  388. ID                                       : 24
  389. Format                                   : PGS
  390. Muxing mode                              : zlib
  391. Codec ID                                 : S_HDMV/PGS
  392. Codec ID/Info                            : Picture based subtitle format used on BDs/HD-DVDs
  393. Duration                                 : 1 h 48 min
  394. Bit rate                                 : 43.9 kb/s
  395. Count of elements                        : 4309
  396. Stream size                              : 34.2 MiB (0%)
  397. Title                                    : Japanese-COMMENTARY-PGS
  398. Language                                 : Japanese
  399. Default                                  : No
  400. Forced                                   : No

  401. Text #16
  402. ID                                       : 25
  403. Format                                   : PGS
  404. Muxing mode                              : zlib
  405. Codec ID                                 : S_HDMV/PGS
  406. Codec ID/Info                            : Picture based subtitle format used on BDs/HD-DVDs
  407. Duration                                 : 1 h 44 min
  408. Bit rate                                 : 412 b/s
  409. Count of elements                        : 30
  410. Stream size                              : 316 KiB (0%)
  411. Title                                    : French-FORCED-PGS
  412. Language                                 : French
  413. Default                                  : No
  414. Forced                                   : No

  415. Text #17
  416. ID                                       : 26
  417. Format                                   : PGS
  418. Muxing mode                              : zlib
  419. Codec ID                                 : S_HDMV/PGS
  420. Codec ID/Info                            : Picture based subtitle format used on BDs/HD-DVDs
  421. Duration                                 : 1 h 35 min
  422. Bit rate                                 : 596 b/s
  423. Count of elements                        : 44
  424. Stream size                              : 418 KiB (0%)
  425. Title                                    : Spanish-FORCED-PGS
  426. Language                                 : Spanish
  427. Default                                  : No
  428. Forced                                   : No

  429. Text #18
  430. ID                                       : 27
  431. Format                                   : PGS
  432. Muxing mode                              : zlib
  433. Codec ID                                 : S_HDMV/PGS
  434. Codec ID/Info                            : Picture based subtitle format used on BDs/HD-DVDs
  435. Duration                                 : 1 h 41 min
  436. Bit rate                                 : 1 058 b/s
  437. Count of elements                        : 106
  438. Stream size                              : 786 KiB (0%)
  439. Title                                    : Japanese-FORCED-PGS
  440. Language                                 : Japanese
  441. Default                                  : No
  442. Forced                                   : No

  443. Text #19
  444. ID                                       : 28
  445. Format                                   : PGS
  446. Muxing mode                              : zlib
  447. Codec ID                                 : S_HDMV/PGS
  448. Codec ID/Info                            : Picture based subtitle format used on BDs/HD-DVDs
  449. Duration                                 : 1 h 45 min
  450. Bit rate                                 : 169 b/s
  451. Count of elements                        : 20
  452. Stream size                              : 131 KiB (0%)
  453. Title                                    : Portuguese-FORCED-PGS
  454. Language                                 : Portuguese
  455. Default                                  : No
  456. Forced                                   : No

  457. Menu
  458. 00:00:00.000                             : en:Chapter 01
  459. 00:05:38.796                             : en:Chapter 02
  460. 00:10:33.674                             : en:Chapter 03
  461. 00:15:35.434                             : en:Chapter 04
  462. 00:19:57.362                             : en:Chapter 05
  463. 00:25:24.356                             : en:Chapter 06
  464. 00:30:07.806                             : en:Chapter 07
  465. 00:36:10.126                             : en:Chapter 08
  466. 00:42:40.558                             : en:Chapter 09
  467. 00:46:17.900                             : en:Chapter 10
  468. 00:50:20.684                             : en:Chapter 11
  469. 00:57:21.396                             : en:Chapter 12
  470. 01:02:29.662                             : en:Chapter 13
  471. 01:06:31.404                             : en:Chapter 14
  472. 01:12:17.791                             : en:Chapter 15
  473. 01:18:37.671                             : en:Chapter 16
  474. 01:23:51.735                             : en:Chapter 17
  475. 01:26:46.451                             : en:Chapter 18
  476. 01:35:17.420                             : en:Chapter 19
  477. 01:42:20.884                             : en:Chapter 20
复制代码

世界尽头/世界终极 The.Worlds.End.2013.2160p.BluRay.REMUX.HEVC.DTS-X.7.1-FGT 54.85GB-2.png 世界尽头/世界终极 The.Worlds.End.2013.2160p.BluRay.REMUX.HEVC.DTS-X.7.1-FGT 54.85GB-3.png






开通VIP免费下载本站所有资源---点这里
新手必看:资源下载、资源播放、字幕使用、等常见问题---点这里
回复

使用道具 举报

发表于 2019-9-7 19:21:05 | 显示全部楼层

楼主太厉害了!楼主,电影应该很好看我觉得蓝光电影网真是个好地方!
开通VIP免费下载本站所有资源---点这里
新手必看:资源下载、资源播放、字幕使用、等常见问题---点这里
回复 支持 反对

使用道具 举报

发表于 7 天前 | 显示全部楼层

我看不错噢 谢谢楼主!蓝光电影网越来越好!
开通VIP免费下载本站所有资源---点这里
新手必看:资源下载、资源播放、字幕使用、等常见问题---点这里
回复 支持 反对

使用道具 举报

懒得打字嘛,点击右侧快捷回复 【右侧内容,后台自定义】
您需要登录后才可以回帖 登录 | 立即加入

本版积分规则

现在加入蓝光电影网,注册一个账号

QQ| 手机版|小黑屋| 蓝光电影网 |网站地图

Copyright © 2015-2019 Comsenz Inc.  Template by 蓝光电影网 All Rights Reserved.

Powered by 蓝光电影网 X3.4

特别声明:本站所有资源均由网上收集而来,版权归原影音公司所有,如果侵犯了你的权益,请通知我们,我们会及时删除侵权内容.

快速回复 返回顶部 返回列表