找回密码

蓝光电影网

查看: 522|回复: 13

[10bit.HDR] 嗜血破晓/2019猎血都市 Daybreakers.2009.2160p.BluRay.x265.10bit.SDR.DTS-HD.MA.TrueHD.7.1.Atmos-SWTYBLZ 24.45GB

[复制链接]

 成长值: 1345

发表于 2019-9-6 23:54:46 | 显示全部楼层 |阅读模式
嗜血破晓/2019猎血都市 Daybreakers.2009.2160p.BluRay.x265.10bit.SDR.DTS-HD.MA.TrueHD.7.1.Atmos-SWTYBLZ 24.45GB-1.png

译  名 嗜血破晓 / 2019猎血都市(港) / 破晓者 / 血世纪(台) / 黎明时分
片  名 Daybreakers
年  代 2009
产  地 美国 / 澳大利亚
类  别 剧情 / 动作 / 科幻 / 恐怖 / 犯罪
语  言 英语
上映日期 2010-01-08(美国)
IMDb评分  6.4/10 from 117479 users
IMDb链接  http://www.imdb.com/title/tt0433362
豆瓣评分 6.9/10 from 29879 users
豆瓣链接 https://movie.douban.com/subject/1972732/
片  长 98分钟
导  演 Michael Spierig / Peter Spierig
编  剧 Michael Spierig / Peter Spierig
主  演 伊桑·霍克 Ethan Hawke
       威廉·达福 Willem Dafoe
       伊莎贝尔·卢卡斯 Isabel Lucas
       山姆·尼尔 Sam Neill
       Harriet Minto-Day
       克劳蒂娅·卡万 Claudia Karvan
       文斯·科洛斯莫 Vince Colosimo
       迈克尔·多曼 Michael Dorman


标  签 吸血鬼 | 科幻 | 美国 | 惊悚 | 恐怖 | 美国电影 | EthanHawke | 2010

简  介  

  曾经由人类主宰的社会如今变成了吸血鬼的天下,而仅存的人类被圈养起来成为制造新鲜血液的机器。人类的数量越来越少,吸血鬼必须研究出血液的替代品,否则将面临更加恐怖的变异。爱德华·道尔顿(伊桑·霍克 饰)是专门研究新型替代品的首席血液专家,他的老板查尔斯·布罗姆利是一位野心家,他非常满意当前吸血鬼世界的现状并企图通过垄断新的替代品获得巨额利润。一次意外爱德华遇到了逃亡中的人类奥德丽·班尼特(克劳蒂娅·卡万 饰),并帮助她摆脱追捕,不料事后奥德丽居然找上门来,并且带来了在一次意外中由吸血鬼奇迹般变成人类的艾维斯,仅存的人类需要一个可以信任的吸血鬼的帮助……
  斯派瑞格兄弟(Peter Spierig & Michael Spierig)在此片中将以往的吸血鬼类型片进行改造,融入科幻的元素打造出全新的故事氛围。
  1. Video
  2. ID                                       : 1
  3. Format                                   : HEVC
  4. Format/Info                              : High Efficiency Video Coding
  5. Format profile                           : Main <a href="/cdn-cgi/l/email-protection" class="__cf_email__" data-cfemail="28191868641d0619">[email protected]</a>@High
  6. Codec ID                                 : V_MPEGH/ISO/HEVC
  7. Duration                                 : 1 h 37 min
  8. Bit rate                                 : 26.1 Mb/s
  9. Width                                    : 3 840 pixels
  10. Height                                   : 1 634 pixels
  11. Display aspect ratio                     : 2.35:1
  12. Frame rate mode                          : Constant
  13. Frame rate                               : 23.976 (24000/1001) FPS
  14. Color space                              : YUV
  15. Chroma subsampling                       : 4:2:0
  16. Bit depth                                : 10 bits
  17. Bits/(Pixel*Frame)                       : 0.173
  18. Stream size                              : 17.8 GiB (73%)
  19. Title                                    : Daybreakers.2009.2160p.BluRay.x265.10bit.SDR.DTS-HD.MA.TrueHD.7.1.Atmos-SWTYBLZ
  20. Writing library                          : x265 3.0ed72af837053:[Windows][GCC 8.2.0][64 bit] 10bit
  21. Encoding settings                        : cpuid=1111039 / frame-threads=16 / numa-pools=44,44 / wpp / no-pmode / no-pme / no-psnr / no-ssim / log-level=2 / input-csp=1 / input-res=3840x1634 / interlace=0 / total-frames=140689 / level-idc=51 / high-tier=1 / uhd-bd=0 / ref=3 / no-allow-non-conformance / repeat-headers / annexb / aud / hrd / info / hash=0 / no-temporal-layers / no-open-gop / min-keyint=1 / keyint=24 / gop-lookahead=0 / bframes=4 / b-adapt=2 / b-pyramid / bframe-bias=0 / rc-lookahead=25 / lookahead-slices=4 / scenecut=40 / radl=0 / no-splice / no-intra-refresh / ctu=64 / min-cu-size=8 / no-rect / no-amp / max-tu-size=32 / tu-inter-depth=1 / tu-intra-depth=1 / limit-tu=0 / rdoq-level=0 / dynamic-rd=0.00 / no-ssim-rd / signhide / no-tskip / nr-intra=0 / nr-inter=0 / no-constrained-intra / strong-intra-smoothing / max-merge=2 / limit-refs=3 / no-limit-modes / me=1 / subme=2 / merange=57 / temporal-mvp / weightp / no-weightb / no-analyze-src-pics / deblock=0:0 / no-sao / no-sao-non-deblock / rd=3 / no-early-skip / rskip / no-fast-intra / no-tskip-fast / no-cu-lossless / no-b-intra / no-splitrd-skip / rdpenalty=0 / psy-rd=2.00 / psy-rdoq=0.00 / no-rd-refine / no-lossless / cbqpoffs=0 / crqpoffs=0 / rc=crf / crf=16.0 / qcomp=0.60 / qpstep=4 / stats-write=0 / stats-read=0 / vbv-maxrate=160000 / vbv-bufsize=160000 / vbv-init=0.9 / crf-max=0.0 / crf-min=0.0 / ipratio=1.40 / pbratio=1.30 / aq-mode=1 / aq-strength=1.00 / cutree / zone-count=0 / no-strict-cbr / qg-size=32 / no-rc-grain / qpmax=69 / qpmin=0 / no-const-vbv / sar=1 / overscan=0 / videoformat=5 / range=0 / colorprim=2 / transfer=2 / colormatrix=2 / chromaloc=0 / display-window=0 / max-cll=0,0 / min-luma=0 / max-luma=1023 / log2-max-poc-lsb=8 / vui-timing-info / vui-hrd-info / slices=1 / opt-qp-pps / opt-ref-list-length-pps / no-multi-pass-opt-rps / scenecut-bias=0.05 / no-opt-cu-delta-qp / no-aq-motion / no-hdr / no-hdr-opt / no-dhdr10-opt / no-idr-recovery-sei / analysis-reuse-level=5 / scale-factor=0 / refine-intra=0 / refine-inter=0 / refine-mv=0 / refine-ctu-distortion=0 / no-limit-sao / ctu-info=0 / no-lowpass-dct / refine-analysis-type=0 / copy-pic=1 / max-ausize-factor=1.0 / no-dynamic-refine / no-single-sei / no-hevc-aq / qp-adaptation-range=1.00
  22. Default                                  : Yes
  23. Forced                                   : No

  24. Audio #1
  25. ID                                       : 2
  26. Format                                   : MLP FBA 16-ch
  27. Format/Info                              : Meridian Lossless Packing FBA with 16-channel presentation
  28. Commercial name                          : Dolby TrueHD with Dolby Atmos
  29. Codec ID                                 : A_TRUEHD
  30. Duration                                 : 1 h 37 min
  31. Bit rate mode                            : Variable
  32. Bit rate                                 : 4 556 kb/s
  33. Maximum bit rate                         : 8 994 kb/s
  34. Channel(s)                               : 8 channels
  35. Channel layout                           : L R C LFE Ls Rs Lb Rb
  36. Sampling rate                            : 48.0 kHz
  37. Frame rate                               : 1 200.000 FPS (40 SPF)
  38. Compression mode                         : Lossless
  39. Stream size                              : 3.11 GiB (13%)
  40. Title                                    : Daybreakers.2009.2160p.BluRay.x265.10bit.SDR.DTS-HD.MA.TrueHD.7.1.Atmos-SWTYBLZ
  41. Language                                 : English
  42. Default                                  : Yes
  43. Forced                                   : No
  44. Number of dynamic objects                : 11
  45. Bed channel count                        : 1 channel
  46. Bed channel configuration                : LFE

  47. Audio #2
  48. ID                                       : 3
  49. Format                                   : DTS XLL
  50. Format/Info                              : Digital Theater Systems
  51. Commercial name                          : DTS-HD Master Audio
  52. Codec ID                                 : A_DTS
  53. Duration                                 : 1 h 37 min
  54. Bit rate mode                            : Variable
  55. Bit rate                                 : 4 259 kb/s
  56. Channel(s)                               : 8 channels
  57. Channel layout                           : C L R LFE Lb Rb Lss Rss
  58. Sampling rate                            : 48.0 kHz
  59. Frame rate                               : 93.750 FPS (512 SPF)
  60. Bit depth                                : 24 bits
  61. Compression mode                         : Lossless
  62. Stream size                              : 2.91 GiB (12%)
  63. Title                                    : Daybreakers.2009.2160p.BluRay.x265.10bit.SDR.DTS-HD.MA.TrueHD.7.1.Atmos-SWTYBLZ
  64. Language                                 : English
  65. Default                                  : No
  66. Forced                                   : No

  67. Audio #3
  68. ID                                       : 4
  69. Format                                   : AC-3
  70. Format/Info                              : Audio Coding 3
  71. Commercial name                          : Dolby Digital
  72. Codec ID                                 : A_AC3
  73. Duration                                 : 1 h 37 min
  74. Bit rate mode                            : Constant
  75. Bit rate                                 : 640 kb/s
  76. Channel(s)                               : 6 channels
  77. Channel layout                           : L R C LFE Ls Rs
  78. Sampling rate                            : 48.0 kHz
  79. Frame rate                               : 31.250 FPS (1536 SPF)
  80. Bit depth                                : 16 bits
  81. Compression mode                         : Lossy
  82. Stream size                              : 448 MiB (2%)
  83. Title                                    : Daybreakers.2009.2160p.BluRay.x265.10bit.SDR.DTS-HD.MA.TrueHD.7.1.Atmos-SWTYBLZ
  84. Language                                 : English
  85. Service kind                             : Complete Main
  86. Default                                  : No
  87. Forced                                   : No

  88. Text #1
  89. ID                                       : 5
  90. Format                                   : UTF-8
  91. Codec ID                                 : S_TEXT/UTF8
  92. Codec ID/Info                            : UTF-8 Plain Text
  93. Duration                                 : 1 h 27 min
  94. Bit rate                                 : 33 b/s
  95. Count of elements                        : 693
  96. Stream size                              : 21.7 KiB (0%)
  97. Title                                    : English-SRT
  98. Language                                 : English
  99. Default                                  : Yes
  100. Forced                                   : No

  101. Text #2
  102. ID                                       : 6
  103. Format                                   : PGS
  104. Muxing mode                              : zlib
  105. Codec ID                                 : S_HDMV/PGS
  106. Codec ID/Info                            : Picture based subtitle format used on BDs/HD-DVDs
  107. Duration                                 : 1 h 27 min
  108. Bit rate                                 : 22.2 kb/s
  109. Count of elements                        : 1388
  110. Stream size                              : 13.9 MiB (0%)
  111. Title                                    : English-PGS
  112. Language                                 : English
  113. Default                                  : No
  114. Forced                                   : No

  115. Text #3
  116. ID                                       : 7
  117. Format                                   : PGS
  118. Muxing mode                              : zlib
  119. Codec ID                                 : S_HDMV/PGS
  120. Codec ID/Info                            : Picture based subtitle format used on BDs/HD-DVDs
  121. Duration                                 : 1 h 29 min
  122. Bit rate                                 : 24.4 kb/s
  123. Count of elements                        : 1570
  124. Stream size                              : 15.6 MiB (0%)
  125. Title                                    : English-SDH-PGS
  126. Language                                 : English
  127. Default                                  : No
  128. Forced                                   : No

  129. Text #4
  130. ID                                       : 8
  131. Format                                   : PGS
  132. Muxing mode                              : zlib
  133. Codec ID                                 : S_HDMV/PGS
  134. Codec ID/Info                            : Picture based subtitle format used on BDs/HD-DVDs
  135. Duration                                 : 1 h 30 min
  136. Bit rate                                 : 22.7 kb/s
  137. Count of elements                        : 1489
  138. Stream size                              : 14.6 MiB (0%)
  139. Title                                    : Spanish-PGS
  140. Language                                 : Spanish
  141. Default                                  : No
  142. Forced                                   : No

  143. Menu
  144. 00:00:00.000                             : en:Chapter 01
  145. 00:04:38.820                             : en:Chapter 02
  146. 00:08:23.377                             : en:Chapter 03
  147. 00:18:32.611                             : en:Chapter 04
  148. 00:24:05.902                             : en:Chapter 05
  149. 00:33:58.995                             : en:Chapter 06
  150. 00:37:38.506                             : en:Chapter 07
  151. 00:40:41.522                             : en:Chapter 08
  152. 00:46:52.851                             : en:Chapter 09
  153. 00:51:30.128                             : en:Chapter 10
  154. 00:57:13.721                             : en:Chapter 11
  155. 01:00:20.241                             : en:Chapter 12
  156. 01:05:40.811                             : en:Chapter 13
  157. 01:10:43.739                             : en:Chapter 14
  158. 01:14:22.541                             : en:Chapter 15
  159. 01:23:52.986                             : en:Chapter 16
复制代码

嗜血破晓/2019猎血都市 Daybreakers.2009.2160p.BluRay.x265.10bit.SDR.DTS-HD.MA.TrueHD.7.1.Atmos-SWTYBLZ 24.45GB-2.png 嗜血破晓/2019猎血都市 Daybreakers.2009.2160p.BluRay.x265.10bit.SDR.DTS-HD.MA.TrueHD.7.1.Atmos-SWTYBLZ 24.45GB-3.png 嗜血破晓/2019猎血都市 Daybreakers.2009.2160p.BluRay.x265.10bit.SDR.DTS-HD.MA.TrueHD.7.1.Atmos-SWTYBLZ 24.45GB-4.png 嗜血破晓/2019猎血都市 Daybreakers.2009.2160p.BluRay.x265.10bit.SDR.DTS-HD.MA.TrueHD.7.1.Atmos-SWTYBLZ 24.45GB-5.png 嗜血破晓/2019猎血都市 Daybreakers.2009.2160p.BluRay.x265.10bit.SDR.DTS-HD.MA.TrueHD.7.1.Atmos-SWTYBLZ 24.45GB-6.png 嗜血破晓/2019猎血都市 Daybreakers.2009.2160p.BluRay.x265.10bit.SDR.DTS-HD.MA.TrueHD.7.1.Atmos-SWTYBLZ 24.45GB-7.png 嗜血破晓/2019猎血都市 Daybreakers.2009.2160p.BluRay.x265.10bit.SDR.DTS-HD.MA.TrueHD.7.1.Atmos-SWTYBLZ 24.45GB-8.png





开通VIP免费下载本站所有资源---点这里
新手必看:资源下载、资源播放、字幕使用、等常见问题---点这里
回复

使用道具 举报

发表于 2019-9-7 00:57:49 | 显示全部楼层
开通VIP免费下载本站所有资源
开通VIP免费下载本站所有资源---点这里
新手必看:资源下载、资源播放、字幕使用、等常见问题---点这里
回复 支持 反对

使用道具 举报

发表于 2019-9-7 04:46:38 | 显示全部楼层

这个帖子不回对不起自己!我想我是一天也不能离开蓝光电影网
开通VIP免费下载本站所有资源---点这里
新手必看:资源下载、资源播放、字幕使用、等常见问题---点这里
回复 支持 反对

使用道具 举报

发表于 2019-9-7 08:06:44 | 显示全部楼层
楼主发贴辛苦了,谢谢楼主分享!我觉得蓝光电影网是注册对了!
开通VIP免费下载本站所有资源---点这里
新手必看:资源下载、资源播放、字幕使用、等常见问题---点这里
回复 支持 反对

使用道具 举报

发表于 2019-9-7 08:20:28 | 显示全部楼层
新手必看:资源下载、资源播放、字幕使用、等常见问题---点这里
开通VIP免费下载本站所有资源---点这里
新手必看:资源下载、资源播放、字幕使用、等常见问题---点这里
回复 支持 反对

使用道具 举报

发表于 2019-9-7 08:25:31 | 显示全部楼层
楼主发贴辛苦了,谢谢楼主分享!我觉得蓝光电影网是注册对了!
开通VIP免费下载本站所有资源---点这里
新手必看:资源下载、资源播放、字幕使用、等常见问题---点这里
回复 支持 反对

使用道具 举报

发表于 2019-9-7 08:29:36 | 显示全部楼层

既然你诚信诚意的推荐了,那我就勉为其难的看看吧!蓝光电影网不走平凡路。
开通VIP免费下载本站所有资源---点这里
新手必看:资源下载、资源播放、字幕使用、等常见问题---点这里
回复 支持 反对

使用道具 举报

发表于 2019-9-7 08:38:19 | 显示全部楼层
感谢楼主分享!
开通VIP免费下载本站所有资源---点这里
新手必看:资源下载、资源播放、字幕使用、等常见问题---点这里
回复 支持 反对

使用道具 举报

发表于 2019-9-7 10:59:18 | 显示全部楼层
楼主发贴辛苦了,谢谢楼主分享!我觉得蓝光电影网是注册对了!
开通VIP免费下载本站所有资源---点这里
新手必看:资源下载、资源播放、字幕使用、等常见问题---点这里
回复 支持 反对

使用道具 举报

发表于 2019-9-7 14:12:01 | 显示全部楼层

我看不错噢 谢谢楼主!蓝光电影网越来越好!
开通VIP免费下载本站所有资源---点这里
新手必看:资源下载、资源播放、字幕使用、等常见问题---点这里
回复 支持 反对

使用道具 举报

懒得打字嘛,点击右侧快捷回复 【右侧内容,后台自定义】
您需要登录后才可以回帖 登录 | 立即加入

本版积分规则

现在加入蓝光电影网,注册一个账号

QQ| 手机版|小黑屋| 蓝光电影网 |网站地图

Copyright © 2015-2019 Comsenz Inc.  Template by 蓝光电影网 All Rights Reserved.

Powered by 蓝光电影网 X3.4

特别声明:本站所有资源均由网上收集而来,版权归原影音公司所有,如果侵犯了你的权益,请通知我们,我们会及时删除侵权内容.

快速回复 返回顶部 返回列表