找回密码

蓝光电影网

查看: 171|回复: 3

[8bit.SDR] 嗜血破晓/2019猎血都市 Daybreakers.2009.2160p.BluRay.x264.8bit.SDR.DTS-HD.MA.TrueHD.7.1.Atmos-SWTYBLZ 27.29GB

[复制链接]

 成长值: 1345

发表于 2019-9-6 23:36:03 | 显示全部楼层 |阅读模式
嗜血破晓/2019猎血都市 Daybreakers.2009.2160p.BluRay.x264.8bit.SDR.DTS-HD.MA.TrueHD.7.1.Atmos-SWTYBLZ 27.29GB-1.png

译  名 嗜血破晓 / 2019猎血都市(港) / 破晓者 / 血世纪(台) / 黎明时分
片  名 Daybreakers
年  代 2009
产  地 美国 / 澳大利亚
类  别 剧情 / 动作 / 科幻 / 恐怖 / 犯罪
语  言 英语
上映日期 2010-01-08(美国)
IMDb评分  6.4/10 from 117479 users
IMDb链接  http://www.imdb.com/title/tt0433362
豆瓣评分 6.9/10 from 29879 users
豆瓣链接 https://movie.douban.com/subject/1972732/
片  长 98分钟
导  演 Michael Spierig / Peter Spierig
编  剧 Michael Spierig / Peter Spierig
主  演 伊桑·霍克 Ethan Hawke
       威廉·达福 Willem Dafoe
       伊莎贝尔·卢卡斯 Isabel Lucas
       山姆·尼尔 Sam Neill
       Harriet Minto-Day
       克劳蒂娅·卡万 Claudia Karvan
       文斯·科洛斯莫 Vince Colosimo
       迈克尔·多曼 Michael Dorman


标  签 吸血鬼 | 科幻 | 美国 | 惊悚 | 恐怖 | 美国电影 | EthanHawke | 2010

简  介  

  曾经由人类主宰的社会如今变成了吸血鬼的天下,而仅存的人类被圈养起来成为制造新鲜血液的机器。人类的数量越来越少,吸血鬼必须研究出血液的替代品,否则将面临更加恐怖的变异。爱德华·道尔顿(伊桑·霍克 饰)是专门研究新型替代品的首席血液专家,他的老板查尔斯·布罗姆利是一位野心家,他非常满意当前吸血鬼世界的现状并企图通过垄断新的替代品获得巨额利润。一次意外爱德华遇到了逃亡中的人类奥德丽·班尼特(克劳蒂娅·卡万 饰),并帮助她摆脱追捕,不料事后奥德丽居然找上门来,并且带来了在一次意外中由吸血鬼奇迹般变成人类的艾维斯,仅存的人类需要一个可以信任的吸血鬼的帮助……
  斯派瑞格兄弟(Peter Spierig & Michael Spierig)在此片中将以往的吸血鬼类型片进行改造,融入科幻的元素打造出全新的故事氛围。
  1. Video
  2. ID                                       : 1
  3. Format                                   : AVC
  4. Format/Info                              : Advanced Video Codec
  5. Format profile                           : <a href="/cdn-cgi/l/email-protection" class="__cf_email__" data-cfemail="470f2e202f070b726976">[email protected]</a>
  6. Format settings                          : CABAC / 5 Ref Frames
  7. Format settings, CABAC                   : Yes
  8. Format settings, Reference frames        : 5 frames
  9. Codec ID                                 : V_MPEG4/ISO/AVC
  10. Duration                                 : 1 h 37 min
  11. Bit rate                                 : 30.2 Mb/s
  12. Width                                    : 3 840 pixels
  13. Height                                   : 1 634 pixels
  14. Display aspect ratio                     : 2.35:1
  15. Frame rate mode                          : Constant
  16. Frame rate                               : 23.976 (24000/1001) FPS
  17. Color space                              : YUV
  18. Chroma subsampling                       : 4:2:0
  19. Bit depth                                : 8 bits
  20. Scan type                                : Progressive
  21. Bits/(Pixel*Frame)                       : 0.201
  22. Stream size                              : 20.6 GiB (76%)
  23. Title                                    : Daybreakers.2009.2160p.BluRay.x264.8bit.SDR.DTS-HD.MA.TrueHD.7.1.Atmos-SWTYBLZ
  24. Writing library                          : x264 core 157 r2935 545de2f
  25. Encoding settings                        : cabac=1 / ref=5 / deblock=1:-1:-1 / analyse=0x3:0x113 / me=umh / subme=10 / psy=1 / psy_rd=1.00:0.15 / mixed_ref=1 / me_range=48 / chroma_me=1 / trellis=2 / 8x8dct=1 / cqm=0 / deadzone=21,11 / fast_pskip=1 / chroma_qp_offset=-3 / threads=51 / lookahead_threads=4 / sliced_threads=0 / nr=0 / decimate=0 / interlaced=0 / bluray_compat=0 / constrained_intra=0 / bframes=3 / b_pyramid=2 / b_adapt=2 / b_bias=0 / direct=3 / weightb=1 / open_gop=0 / weightp=2 / keyint=250 / keyint_min=23 / scenecut=40 / intra_refresh=0 / rc_lookahead=50 / rc=crf / mbtree=1 / crf=18.0 / qcomp=0.60 / qpmin=0 / qpmax=69 / qpstep=4 / ip_ratio=1.40 / aq=1:1.00
  26. Default                                  : Yes
  27. Forced                                   : No

  28. Audio #1
  29. ID                                       : 2
  30. Format                                   : MLP FBA 16-ch
  31. Format/Info                              : Meridian Lossless Packing FBA with 16-channel presentation
  32. Commercial name                          : Dolby TrueHD with Dolby Atmos
  33. Codec ID                                 : A_TRUEHD
  34. Duration                                 : 1 h 37 min
  35. Bit rate mode                            : Variable
  36. Bit rate                                 : 4 556 kb/s
  37. Maximum bit rate                         : 8 994 kb/s
  38. Channel(s)                               : 8 channels
  39. Channel layout                           : L R C LFE Ls Rs Lb Rb
  40. Sampling rate                            : 48.0 kHz
  41. Frame rate                               : 1 200.000 FPS (40 SPF)
  42. Compression mode                         : Lossless
  43. Stream size                              : 3.11 GiB (11%)
  44. Title                                    : Daybreakers.2009.2160p.BluRay.x264.8bit.SDR.DTS-HD.MA.TrueHD.7.1.Atmos-SWTYBLZ
  45. Language                                 : English
  46. Default                                  : Yes
  47. Forced                                   : No
  48. Number of dynamic objects                : 11
  49. Bed channel count                        : 1 channel
  50. Bed channel configuration                : LFE

  51. Audio #2
  52. ID                                       : 3
  53. Format                                   : DTS XLL
  54. Format/Info                              : Digital Theater Systems
  55. Commercial name                          : DTS-HD Master Audio
  56. Codec ID                                 : A_DTS
  57. Duration                                 : 1 h 37 min
  58. Bit rate mode                            : Variable
  59. Bit rate                                 : 4 259 kb/s
  60. Channel(s)                               : 8 channels
  61. Channel layout                           : C L R LFE Lb Rb Lss Rss
  62. Sampling rate                            : 48.0 kHz
  63. Frame rate                               : 93.750 FPS (512 SPF)
  64. Bit depth                                : 24 bits
  65. Compression mode                         : Lossless
  66. Stream size                              : 2.91 GiB (11%)
  67. Title                                    : Daybreakers.2009.2160p.BluRay.x264.8bit.SDR.DTS-HD.MA.TrueHD.7.1.Atmos-SWTYBLZ
  68. Language                                 : English
  69. Default                                  : No
  70. Forced                                   : No

  71. Audio #3
  72. ID                                       : 4
  73. Format                                   : AC-3
  74. Format/Info                              : Audio Coding 3
  75. Commercial name                          : Dolby Digital
  76. Codec ID                                 : A_AC3
  77. Duration                                 : 1 h 37 min
  78. Bit rate mode                            : Constant
  79. Bit rate                                 : 640 kb/s
  80. Channel(s)                               : 6 channels
  81. Channel layout                           : L R C LFE Ls Rs
  82. Sampling rate                            : 48.0 kHz
  83. Frame rate                               : 31.250 FPS (1536 SPF)
  84. Bit depth                                : 16 bits
  85. Compression mode                         : Lossy
  86. Stream size                              : 448 MiB (2%)
  87. Title                                    : Daybreakers.2009.2160p.BluRay.x264.8bit.SDR.DTS-HD.MA.TrueHD.7.1.Atmos-SWTYBLZ
  88. Language                                 : English
  89. Service kind                             : Complete Main
  90. Default                                  : No
  91. Forced                                   : No

  92. Text #1
  93. ID                                       : 5
  94. Format                                   : UTF-8
  95. Codec ID                                 : S_TEXT/UTF8
  96. Codec ID/Info                            : UTF-8 Plain Text
  97. Duration                                 : 1 h 27 min
  98. Bit rate                                 : 33 b/s
  99. Count of elements                        : 693
  100. Stream size                              : 21.7 KiB (0%)
  101. Title                                    : English-SRT
  102. Language                                 : English
  103. Default                                  : Yes
  104. Forced                                   : No

  105. Text #2
  106. ID                                       : 6
  107. Format                                   : PGS
  108. Muxing mode                              : zlib
  109. Codec ID                                 : S_HDMV/PGS
  110. Codec ID/Info                            : Picture based subtitle format used on BDs/HD-DVDs
  111. Duration                                 : 1 h 27 min
  112. Bit rate                                 : 22.2 kb/s
  113. Count of elements                        : 1388
  114. Stream size                              : 13.9 MiB (0%)
  115. Title                                    : English-PGS
  116. Language                                 : English
  117. Default                                  : No
  118. Forced                                   : No

  119. Text #3
  120. ID                                       : 7
  121. Format                                   : PGS
  122. Muxing mode                              : zlib
  123. Codec ID                                 : S_HDMV/PGS
  124. Codec ID/Info                            : Picture based subtitle format used on BDs/HD-DVDs
  125. Duration                                 : 1 h 29 min
  126. Bit rate                                 : 24.4 kb/s
  127. Count of elements                        : 1570
  128. Stream size                              : 15.6 MiB (0%)
  129. Title                                    : English-SDH-PGS
  130. Language                                 : English
  131. Default                                  : No
  132. Forced                                   : No

  133. Text #4
  134. ID                                       : 8
  135. Format                                   : PGS
  136. Muxing mode                              : zlib
  137. Codec ID                                 : S_HDMV/PGS
  138. Codec ID/Info                            : Picture based subtitle format used on BDs/HD-DVDs
  139. Duration                                 : 1 h 30 min
  140. Bit rate                                 : 22.7 kb/s
  141. Count of elements                        : 1489
  142. Stream size                              : 14.6 MiB (0%)
  143. Title                                    : Spanish-PGS
  144. Language                                 : Spanish
  145. Default                                  : No
  146. Forced                                   : No

  147. Menu
  148. 00:00:00.000                             : en:Chapter 01
  149. 00:04:38.820                             : en:Chapter 02
  150. 00:08:23.377                             : en:Chapter 03
  151. 00:18:32.611                             : en:Chapter 04
  152. 00:24:05.902                             : en:Chapter 05
  153. 00:33:58.995                             : en:Chapter 06
  154. 00:37:38.506                             : en:Chapter 07
  155. 00:40:41.522                             : en:Chapter 08
  156. 00:46:52.851                             : en:Chapter 09
  157. 00:51:30.128                             : en:Chapter 10
  158. 00:57:13.721                             : en:Chapter 11
  159. 01:00:20.241                             : en:Chapter 12
  160. 01:05:40.811                             : en:Chapter 13
  161. 01:10:43.739                             : en:Chapter 14
  162. 01:14:22.541                             : en:Chapter 15
  163. 01:23:52.986                             : en:Chapter 16
复制代码

嗜血破晓/2019猎血都市 Daybreakers.2009.2160p.BluRay.x264.8bit.SDR.DTS-HD.MA.TrueHD.7.1.Atmos-SWTYBLZ 27.29GB-2.png 嗜血破晓/2019猎血都市 Daybreakers.2009.2160p.BluRay.x264.8bit.SDR.DTS-HD.MA.TrueHD.7.1.Atmos-SWTYBLZ 27.29GB-3.png 嗜血破晓/2019猎血都市 Daybreakers.2009.2160p.BluRay.x264.8bit.SDR.DTS-HD.MA.TrueHD.7.1.Atmos-SWTYBLZ 27.29GB-4.png 嗜血破晓/2019猎血都市 Daybreakers.2009.2160p.BluRay.x264.8bit.SDR.DTS-HD.MA.TrueHD.7.1.Atmos-SWTYBLZ 27.29GB-5.png 嗜血破晓/2019猎血都市 Daybreakers.2009.2160p.BluRay.x264.8bit.SDR.DTS-HD.MA.TrueHD.7.1.Atmos-SWTYBLZ 27.29GB-6.png 嗜血破晓/2019猎血都市 Daybreakers.2009.2160p.BluRay.x264.8bit.SDR.DTS-HD.MA.TrueHD.7.1.Atmos-SWTYBLZ 27.29GB-7.png 嗜血破晓/2019猎血都市 Daybreakers.2009.2160p.BluRay.x264.8bit.SDR.DTS-HD.MA.TrueHD.7.1.Atmos-SWTYBLZ 27.29GB-8.png






开通VIP免费下载本站所有资源---点这里
新手必看:资源下载、资源播放、字幕使用、等常见问题---点这里
回复

使用道具 举报

发表于 2019-9-6 23:52:14 | 显示全部楼层
盖楼盖楼。
开通VIP免费下载本站所有资源---点这里
新手必看:资源下载、资源播放、字幕使用、等常见问题---点这里
回复

使用道具 举报

发表于 2019-9-7 14:58:55 | 显示全部楼层
楼主发贴辛苦了,谢谢楼主分享!我觉得蓝光电影网是注册对了!
开通VIP免费下载本站所有资源---点这里
新手必看:资源下载、资源播放、字幕使用、等常见问题---点这里
回复 支持 反对

使用道具 举报

发表于 2019-9-8 01:16:33 | 显示全部楼层

既然你诚信诚意的推荐了,那我就勉为其难的看看吧!蓝光电影网不走平凡路。
开通VIP免费下载本站所有资源---点这里
新手必看:资源下载、资源播放、字幕使用、等常见问题---点这里
回复 支持 反对

使用道具 举报

懒得打字嘛,点击右侧快捷回复 【右侧内容,后台自定义】
您需要登录后才可以回帖 登录 | 立即加入

本版积分规则

现在加入蓝光电影网,注册一个账号

QQ| 手机版|小黑屋| 蓝光电影网 |网站地图

Copyright © 2015-2019 Comsenz Inc.  Template by 蓝光电影网 All Rights Reserved.

Powered by 蓝光电影网 X3.4

特别声明:本站所有资源均由网上收集而来,版权归原影音公司所有,如果侵犯了你的权益,请通知我们,我们会及时删除侵权内容.

快速回复 返回顶部 返回列表