找回密码

蓝光电影网

查看: 333|回复: 8

[8bit.SDR] 阿拉丁/阿拉丁真人版 Aladdin.2019.2160p.BluRay.x264.8bit.SDR.DTS-HD.MA.TrueHD.7.1.Atmos-SWTYBLZ 36.66GB

[复制链接]

 成长值: 1345

发表于 2019-9-5 12:19:13 | 显示全部楼层 |阅读模式
阿拉丁/阿拉丁真人版 Aladdin.2019.2160p.BluRay.x264.8bit.SDR.DTS-HD.MA.TrueHD.7.1.Atmos-SWTYBLZ 36.66GB-1.png

译  名 阿拉丁 / 阿拉丁真人版
片  名 Aladdin
年  代 2019
产  地 美国
类  别 爱情 / 歌舞 / 奇幻 / 冒险
语  言 英语
上映日期 2019-05-24(美国/中国大陆)
IMDb评分  7.4/10 from 88756 users
IMDb链接  http://www.imdb.com/title/tt6139732
豆瓣评分 7.8/10 from 131777 users
豆瓣链接 https://movie.douban.com/subject/26891256/
片  长 128分钟
导  演 盖·里奇 Guy Ritchie
编  剧 盖·里奇 Guy Ritchie / 约翰·奥古斯特 John August
主  演 梅纳·玛索德 Mena Massoud
       娜奥米·斯科特 Naomi Scott
       威尔·史密斯 Will Smith
       马尔万·肯扎里 Marwan Kenzari
       纳维德·内加班 Navid Negahban
       纽曼·阿卡 Numan Acar
       艾伦·图代克 Alan Tudyk
       比利·马格努森 Billy Magnussen
       纳西姆·帕杜雷德 Nasim Pedrad
       卡米尔·雷米泽斯基 Kamil Lemieszewski
       乔伊·安沙 Joey Ansah
       贾格·帕特尔 Jag Patel
       贝恩·科拉科 Bern Colla?o
       凯西·克莱尔 Cassie Clare
       威尔·布拉格罗夫 Will Blagrove
       哈廷·帕特尔 Hiten Patel
       阿米尔鲍特罗斯 Amir Boutrous
       埃里克·可可 Eric Coco
       弗兰·塔格 Fran Targ
       阿玛尔·阿达蒂亚 Amar Adatia
       乔丹·A·纳什 Jordan A. Nash
       通恰伊·古奈什 Tuncay Gunes
       塞尔哈特·梅汀 Serhat Metin
       凯文·马塔迪恩 Kevin Matadeen
       保利娜·博内瓦 Paulina Boneva
       塔希尔·布尔汉 Tahir Burhan
       亚当·柯林斯 Adam Collins


标  签 迪士尼 | 童话 | 奇幻 | 魔幻 | 爱情 | 音乐 | 美国 | 2019

简  介  

  在充满异域风情的古代阿拉伯王国,善良的穷小子阿拉丁(莫纳·马苏德 饰)和勇敢的茉莉公主(娜奥米·斯科特 饰)浪漫邂逅,在可以满足主人三个愿望的神灯精灵(威尔·史密斯 饰)的帮助下,两人踏上了一次寻找真爱和自我的魔幻冒险。
  1. Video
  2. ID                                       : 1
  3. Format                                   : AVC
  4. Format/Info                              : Advanced Video Codec
  5. Format profile                           : <a href="/cdn-cgi/l/email-protection" class="__cf_email__" data-cfemail="2169484649616d140f10">[email protected]</a>
  6. Format settings                          : CABAC / 5 Ref Frames
  7. Format settings, CABAC                   : Yes
  8. Format settings, Reference frames        : 5 frames
  9. Codec ID                                 : V_MPEG4/ISO/AVC
  10. Duration                                 : 2 h 7 min
  11. Bit rate                                 : 31.1 Mb/s
  12. Width                                    : 3 840 pixels
  13. Height                                   : 1 608 pixels
  14. Display aspect ratio                     : 2.40:1
  15. Frame rate mode                          : Constant
  16. Frame rate                               : 23.976 (24000/1001) FPS
  17. Color space                              : YUV
  18. Chroma subsampling                       : 4:2:0
  19. Bit depth                                : 8 bits
  20. Scan type                                : Progressive
  21. Bits/(Pixel*Frame)                       : 0.210
  22. Stream size                              : 27.8 GiB (76%)
  23. Title                                    : Aladdin.2019.2160p.BluRay.x264.8bit.SDR.DTS-HD.MA.TrueHD.7.1.Atmos-SWTYBLZ
  24. Writing library                          : x264 core 157 r2935 545de2f
  25. Encoding settings                        : cabac=1 / ref=5 / deblock=1:-1:-1 / analyse=0x3:0x113 / me=umh / subme=10 / psy=1 / psy_rd=1.00:0.15 / mixed_ref=1 / me_range=48 / chroma_me=1 / trellis=2 / 8x8dct=1 / cqm=0 / deadzone=21,11 / fast_pskip=1 / chroma_qp_offset=-3 / threads=48 / lookahead_threads=4 / sliced_threads=0 / nr=0 / decimate=0 / interlaced=0 / bluray_compat=0 / constrained_intra=0 / bframes=3 / b_pyramid=2 / b_adapt=2 / b_bias=0 / direct=3 / weightb=1 / open_gop=0 / weightp=2 / keyint=250 / keyint_min=23 / scenecut=40 / intra_refresh=0 / rc_lookahead=50 / rc=crf / mbtree=1 / crf=18.0 / qcomp=0.60 / qpmin=0 / qpmax=69 / qpstep=4 / ip_ratio=1.40 / aq=1:1.00
  26. Language                                 : English
  27. Default                                  : Yes
  28. Forced                                   : No

  29. Audio #1
  30. ID                                       : 2
  31. Format                                   : MLP FBA 16-ch
  32. Format/Info                              : Meridian Lossless Packing FBA with 16-channel presentation
  33. Commercial name                          : Dolby TrueHD with Dolby Atmos
  34. Codec ID                                 : A_TRUEHD
  35. Duration                                 : 2 h 7 min
  36. Bit rate mode                            : Variable
  37. Bit rate                                 : 4 877 kb/s
  38. Maximum bit rate                         : 9 060 kb/s
  39. Channel(s)                               : 8 channels
  40. Channel layout                           : L R C LFE Ls Rs Lb Rb
  41. Sampling rate                            : 48.0 kHz
  42. Frame rate                               : 1 200.000 FPS (40 SPF)
  43. Compression mode                         : Lossless
  44. Stream size                              : 4.36 GiB (12%)
  45. Title                                    : Aladdin.2019.2160p.BluRay.x264.8bit.SDR.DTS-HD.MA.TrueHD.7.1.Atmos-SWTYBLZ
  46. Language                                 : English
  47. Default                                  : Yes
  48. Forced                                   : No
  49. Number of dynamic objects                : 13
  50. Bed channel count                        : 1 channel
  51. Bed channel configuration                : LFE

  52. Audio #2
  53. ID                                       : 3
  54. Format                                   : DTS XLL
  55. Format/Info                              : Digital Theater Systems
  56. Commercial name                          : DTS-HD Master Audio
  57. Codec ID                                 : A_DTS
  58. Duration                                 : 2 h 7 min
  59. Bit rate mode                            : Variable
  60. Bit rate                                 : 4 165 kb/s
  61. Channel(s)                               : 8 channels
  62. Channel layout                           : C L R LFE Lb Rb Lss Rss
  63. Sampling rate                            : 48.0 kHz
  64. Frame rate                               : 93.750 FPS (512 SPF)
  65. Bit depth                                : 24 bits
  66. Compression mode                         : Lossless
  67. Stream size                              : 3.72 GiB (10%)
  68. Title                                    : Aladdin.2019.2160p.BluRay.x264.8bit.SDR.DTS-HD.MA.TrueHD.7.1.Atmos-SWTYBLZ
  69. Language                                 : English
  70. Default                                  : No
  71. Forced                                   : No

  72. Audio #3
  73. ID                                       : 4
  74. Format                                   : AC-3
  75. Format/Info                              : Audio Coding 3
  76. Commercial name                          : Dolby Digital
  77. Codec ID                                 : A_AC3
  78. Duration                                 : 2 h 7 min
  79. Bit rate mode                            : Constant
  80. Bit rate                                 : 640 kb/s
  81. Channel(s)                               : 6 channels
  82. Channel layout                           : L R C LFE Ls Rs
  83. Sampling rate                            : 48.0 kHz
  84. Frame rate                               : 31.250 FPS (1536 SPF)
  85. Bit depth                                : 16 bits
  86. Compression mode                         : Lossy
  87. Stream size                              : 586 MiB (2%)
  88. Title                                    : Aladdin.2019.2160p.BluRay.x264.8bit.SDR.DTS-HD.MA.TrueHD.7.1.Atmos-SWTYBLZ
  89. Language                                 : English
  90. Service kind                             : Complete Main
  91. Default                                  : No
  92. Forced                                   : No

  93. Text #1
  94. ID                                       : 5
  95. Format                                   : UTF-8
  96. Codec ID                                 : S_TEXT/UTF8
  97. Codec ID/Info                            : UTF-8 Plain Text
  98. Duration                                 : 2 h 7 min
  99. Bit rate                                 : 63 b/s
  100. Count of elements                        : 2112
  101. Stream size                              : 59.2 KiB (0%)
  102. Title                                    : English-SRT
  103. Language                                 : English
  104. Default                                  : Yes
  105. Forced                                   : No

  106. Text #2
  107. ID                                       : 6
  108. Format                                   : PGS
  109. Muxing mode                              : zlib
  110. Codec ID                                 : S_HDMV/PGS
  111. Codec ID/Info                            : Picture based subtitle format used on BDs/HD-DVDs
  112. Duration                                 : 2 h 7 min
  113. Bit rate                                 : 46.8 kb/s
  114. Count of elements                        : 4858
  115. Stream size                              : 42.5 MiB (0%)
  116. Title                                    : English-PGS
  117. Language                                 : English
  118. Default                                  : No
  119. Forced                                   : No

  120. Text #3
  121. ID                                       : 7
  122. Format                                   : PGS
  123. Muxing mode                              : zlib
  124. Codec ID                                 : S_HDMV/PGS
  125. Codec ID/Info                            : Picture based subtitle format used on BDs/HD-DVDs
  126. Duration                                 : 2 h 6 min
  127. Bit rate                                 : 36.1 kb/s
  128. Count of elements                        : 3600
  129. Stream size                              : 32.7 MiB (0%)
  130. Title                                    : French-PGS
  131. Language                                 : French
  132. Default                                  : No
  133. Forced                                   : No

  134. Text #4
  135. ID                                       : 8
  136. Format                                   : PGS
  137. Muxing mode                              : zlib
  138. Codec ID                                 : S_HDMV/PGS
  139. Codec ID/Info                            : Picture based subtitle format used on BDs/HD-DVDs
  140. Duration                                 : 2 h 6 min
  141. Bit rate                                 : 32.2 kb/s
  142. Count of elements                        : 3422
  143. Stream size                              : 29.2 MiB (0%)
  144. Title                                    : French-PGS
  145. Language                                 : French
  146. Default                                  : No
  147. Forced                                   : No

  148. Text #5
  149. ID                                       : 9
  150. Format                                   : PGS
  151. Muxing mode                              : zlib
  152. Codec ID                                 : S_HDMV/PGS
  153. Codec ID/Info                            : Picture based subtitle format used on BDs/HD-DVDs
  154. Duration                                 : 2 h 6 min
  155. Bit rate                                 : 35.5 kb/s
  156. Count of elements                        : 3846
  157. Stream size                              : 32.2 MiB (0%)
  158. Title                                    : German-PGS
  159. Language                                 : German
  160. Default                                  : No
  161. Forced                                   : No

  162. Text #6
  163. ID                                       : 10
  164. Format                                   : PGS
  165. Muxing mode                              : zlib
  166. Codec ID                                 : S_HDMV/PGS
  167. Codec ID/Info                            : Picture based subtitle format used on BDs/HD-DVDs
  168. Duration                                 : 2 h 6 min
  169. Bit rate                                 : 34.8 kb/s
  170. Count of elements                        : 3570
  171. Stream size                              : 31.6 MiB (0%)
  172. Title                                    : Italian-PGS
  173. Language                                 : Italian
  174. Default                                  : No
  175. Forced                                   : No

  176. Text #7
  177. ID                                       : 11
  178. Format                                   : PGS
  179. Muxing mode                              : zlib
  180. Codec ID                                 : S_HDMV/PGS
  181. Codec ID/Info                            : Picture based subtitle format used on BDs/HD-DVDs
  182. Duration                                 : 2 h 6 min
  183. Bit rate                                 : 27.0 kb/s
  184. Count of elements                        : 3322
  185. Stream size                              : 24.6 MiB (0%)
  186. Title                                    : Japanese-PGS
  187. Language                                 : Japanese
  188. Default                                  : No
  189. Forced                                   : No

  190. Text #8
  191. ID                                       : 12
  192. Format                                   : PGS
  193. Muxing mode                              : zlib
  194. Codec ID                                 : S_HDMV/PGS
  195. Codec ID/Info                            : Picture based subtitle format used on BDs/HD-DVDs
  196. Duration                                 : 2 h 0 min
  197. Bit rate                                 : 37.9 kb/s
  198. Count of elements                        : 3570
  199. Stream size                              : 32.6 MiB (0%)
  200. Title                                    : Spanish-PGS
  201. Language                                 : Spanish
  202. Default                                  : No
  203. Forced                                   : No

  204. Menu
  205. 00:00:00.000                             : en:Chapter 01
  206. 00:04:49.372                             : en:Chapter 02
  207. 00:13:04.658                             : en:Chapter 03
  208. 00:18:55.759                             : en:Chapter 04
  209. 00:26:18.410                             : en:Chapter 05
  210. 00:30:26.324                             : en:Chapter 06
  211. 00:39:51.889                             : en:Chapter 07
  212. 00:54:50.161                             : en:Chapter 08
  213. 01:02:18.651                             : en:Chapter 09
  214. 01:09:19.488                             : en:Chapter 10
  215. 01:21:53.033                             : en:Chapter 11
  216. 01:33:51.417                             : en:Chapter 12
  217. 01:38:48.380                             : en:Chapter 13
  218. 01:45:19.396                             : en:Chapter 14
  219. 01:53:07.030                             : en:Chapter 15
  220. 01:59:38.462                             : en:Chapter 16
复制代码

阿拉丁/阿拉丁真人版 Aladdin.2019.2160p.BluRay.x264.8bit.SDR.DTS-HD.MA.TrueHD.7.1.Atmos-SWTYBLZ 36.66GB-2.png 阿拉丁/阿拉丁真人版 Aladdin.2019.2160p.BluRay.x264.8bit.SDR.DTS-HD.MA.TrueHD.7.1.Atmos-SWTYBLZ 36.66GB-3.png 阿拉丁/阿拉丁真人版 Aladdin.2019.2160p.BluRay.x264.8bit.SDR.DTS-HD.MA.TrueHD.7.1.Atmos-SWTYBLZ 36.66GB-4.png 阿拉丁/阿拉丁真人版 Aladdin.2019.2160p.BluRay.x264.8bit.SDR.DTS-HD.MA.TrueHD.7.1.Atmos-SWTYBLZ 36.66GB-5.png 阿拉丁/阿拉丁真人版 Aladdin.2019.2160p.BluRay.x264.8bit.SDR.DTS-HD.MA.TrueHD.7.1.Atmos-SWTYBLZ 36.66GB-6.png 阿拉丁/阿拉丁真人版 Aladdin.2019.2160p.BluRay.x264.8bit.SDR.DTS-HD.MA.TrueHD.7.1.Atmos-SWTYBLZ 36.66GB-7.png 阿拉丁/阿拉丁真人版 Aladdin.2019.2160p.BluRay.x264.8bit.SDR.DTS-HD.MA.TrueHD.7.1.Atmos-SWTYBLZ 36.66GB-8.png






开通VIP免费下载本站所有资源---点这里
新手必看:资源下载、资源播放、字幕使用、等常见问题---点这里
回复

使用道具 举报

发表于 2019-9-5 18:07:45 | 显示全部楼层
谢谢分享。。。。。。。。。。。。。。。
开通VIP免费下载本站所有资源---点这里
新手必看:资源下载、资源播放、字幕使用、等常见问题---点这里
回复

使用道具 举报

发表于 2019-9-5 23:26:43 | 显示全部楼层
神丁阿拉灯  有了。
开通VIP免费下载本站所有资源---点这里
新手必看:资源下载、资源播放、字幕使用、等常见问题---点这里
回复 支持 反对

使用道具 举报

发表于 2019-9-6 08:03:22 | 显示全部楼层
楼主发贴辛苦了,谢谢楼主分享!我觉得蓝光电影网是注册对了!
开通VIP免费下载本站所有资源---点这里
新手必看:资源下载、资源播放、字幕使用、等常见问题---点这里
回复 支持 反对

使用道具 举报

发表于 2019-9-6 08:07:18 | 显示全部楼层
楼主发贴辛苦了,谢谢楼主分享!我觉得蓝光电影网是注册对了!
开通VIP免费下载本站所有资源---点这里
新手必看:资源下载、资源播放、字幕使用、等常见问题---点这里
回复 支持 反对

使用道具 举报

发表于 2019-9-6 08:45:46 | 显示全部楼层

楼主太厉害了!楼主,电影应该很好看我觉得蓝光电影网真是个好地方!
开通VIP免费下载本站所有资源---点这里
新手必看:资源下载、资源播放、字幕使用、等常见问题---点这里
回复 支持 反对

使用道具 举报

发表于 2019-9-6 15:59:30 | 显示全部楼层
盖楼支持
开通VIP免费下载本站所有资源---点这里
新手必看:资源下载、资源播放、字幕使用、等常见问题---点这里
回复

使用道具 举报

发表于 2019-9-6 18:49:44 | 显示全部楼层

我看不错噢 谢谢楼主!蓝光电影网越来越好!
开通VIP免费下载本站所有资源---点这里
新手必看:资源下载、资源播放、字幕使用、等常见问题---点这里
回复 支持 反对

使用道具 举报

发表于 2019-9-6 22:51:46 | 显示全部楼层

楼主太厉害了!楼主,电影应该很好看我觉得蓝光电影网真是个好地方!
开通VIP免费下载本站所有资源---点这里
新手必看:资源下载、资源播放、字幕使用、等常见问题---点这里
回复 支持 反对

使用道具 举报

懒得打字嘛,点击右侧快捷回复 【右侧内容,后台自定义】
您需要登录后才可以回帖 登录 | 立即加入

本版积分规则

现在加入蓝光电影网,注册一个账号

QQ| 手机版|小黑屋| 蓝光电影网 |网站地图

Copyright © 2015-2019 Comsenz Inc.  Template by 蓝光电影网 All Rights Reserved.

Powered by 蓝光电影网 X3.4

特别声明:本站所有资源均由网上收集而来,版权归原影音公司所有,如果侵犯了你的权益,请通知我们,我们会及时删除侵权内容.

快速回复 返回顶部 返回列表