找回密码

蓝光电影网

查看: 149|回复: 2

[10bit.SDR] 阿拉丁/阿拉丁真人版 Aladdin.2019.2160p.BluRay.x265.10bit.SDR.DTS-HD.MA.TrueHD.7.1.Atmos-SWTYBLZ 34.86GB

[复制链接]

 成长值: 1345

发表于 2019-9-5 12:15:09 | 显示全部楼层 |阅读模式
阿拉丁/阿拉丁真人版 Aladdin.2019.2160p.BluRay.x265.10bit.SDR.DTS-HD.MA.TrueHD.7.1.Atmos-SWTYBLZ 34.86GB-1.png

译  名 阿拉丁 / 阿拉丁真人版
片  名 Aladdin
年  代 2019
产  地 美国
类  别 爱情 / 歌舞 / 奇幻 / 冒险
语  言 英语
上映日期 2019-05-24(美国/中国大陆)
IMDb评分  7.4/10 from 88756 users
IMDb链接  http://www.imdb.com/title/tt6139732
豆瓣评分 7.8/10 from 131777 users
豆瓣链接 https://movie.douban.com/subject/26891256/
片  长 128分钟
导  演 盖·里奇 Guy Ritchie
编  剧 盖·里奇 Guy Ritchie / 约翰·奥古斯特 John August
主  演 梅纳·玛索德 Mena Massoud
       娜奥米·斯科特 Naomi Scott
       威尔·史密斯 Will Smith
       马尔万·肯扎里 Marwan Kenzari
       纳维德·内加班 Navid Negahban
       纽曼·阿卡 Numan Acar
       艾伦·图代克 Alan Tudyk
       比利·马格努森 Billy Magnussen
       纳西姆·帕杜雷德 Nasim Pedrad
       卡米尔·雷米泽斯基 Kamil Lemieszewski
       乔伊·安沙 Joey Ansah
       贾格·帕特尔 Jag Patel
       贝恩·科拉科 Bern Colla?o
       凯西·克莱尔 Cassie Clare
       威尔·布拉格罗夫 Will Blagrove
       哈廷·帕特尔 Hiten Patel
       阿米尔鲍特罗斯 Amir Boutrous
       埃里克·可可 Eric Coco
       弗兰·塔格 Fran Targ
       阿玛尔·阿达蒂亚 Amar Adatia
       乔丹·A·纳什 Jordan A. Nash
       通恰伊·古奈什 Tuncay Gunes
       塞尔哈特·梅汀 Serhat Metin
       凯文·马塔迪恩 Kevin Matadeen
       保利娜·博内瓦 Paulina Boneva
       塔希尔·布尔汉 Tahir Burhan
       亚当·柯林斯 Adam Collins


标  签 迪士尼 | 童话 | 奇幻 | 魔幻 | 爱情 | 音乐 | 美国 | 2019

简  介  

  在充满异域风情的古代阿拉伯王国,善良的穷小子阿拉丁(莫纳·马苏德 饰)和勇敢的茉莉公主(娜奥米·斯科特 饰)浪漫邂逅,在可以满足主人三个愿望的神灯精灵(威尔·史密斯 饰)的帮助下,两人踏上了一次寻找真爱和自我的魔幻冒险。
  1. Video
  2. ID                                       : 1
  3. Format                                   : HEVC
  4. Format/Info                              : High Efficiency Video Coding
  5. Format profile                           : Main <a href="/cdn-cgi/l/email-protection" class="__cf_email__" data-cfemail="daebea9a96eff4eb">[email protected]</a>@High
  6. Codec ID                                 : V_MPEGH/ISO/HEVC
  7. Duration                                 : 2 h 7 min
  8. Bit rate                                 : 29.1 Mb/s
  9. Width                                    : 3 840 pixels
  10. Height                                   : 1 608 pixels
  11. Display aspect ratio                     : 2.40:1
  12. Frame rate mode                          : Constant
  13. Frame rate                               : 23.976 (24000/1001) FPS
  14. Color space                              : YUV
  15. Chroma subsampling                       : 4:2:0
  16. Bit depth                                : 10 bits
  17. Bits/(Pixel*Frame)                       : 0.196
  18. Stream size                              : 26.0 GiB (75%)
  19. Title                                    : Aladdin.2019.2160p.BluRay.x265.10bit.SDR.DTS-HD.MA.TrueHD.7.1.Atmos-SWTYBLZ
  20. Writing library                          : x265 3.0ed72af837053:[Windows][GCC 8.2.0][64 bit] 10bit
  21. Encoding settings                        : cpuid=1111039 / frame-threads=16 / numa-pools=44,44 / wpp / no-pmode / no-pme / no-psnr / no-ssim / log-level=2 / input-csp=1 / input-res=3840x1608 / interlace=0 / total-frames=184109 / level-idc=51 / high-tier=1 / uhd-bd=0 / ref=3 / no-allow-non-conformance / repeat-headers / annexb / aud / hrd / info / hash=0 / no-temporal-layers / no-open-gop / min-keyint=1 / keyint=24 / gop-lookahead=0 / bframes=4 / b-adapt=2 / b-pyramid / bframe-bias=0 / rc-lookahead=25 / lookahead-slices=4 / scenecut=40 / radl=0 / no-splice / no-intra-refresh / ctu=64 / min-cu-size=8 / no-rect / no-amp / max-tu-size=32 / tu-inter-depth=1 / tu-intra-depth=1 / limit-tu=0 / rdoq-level=0 / dynamic-rd=0.00 / no-ssim-rd / signhide / no-tskip / nr-intra=0 / nr-inter=0 / no-constrained-intra / strong-intra-smoothing / max-merge=2 / limit-refs=3 / no-limit-modes / me=1 / subme=2 / merange=57 / temporal-mvp / weightp / no-weightb / no-analyze-src-pics / deblock=0:0 / no-sao / no-sao-non-deblock / rd=3 / no-early-skip / rskip / no-fast-intra / no-tskip-fast / no-cu-lossless / no-b-intra / no-splitrd-skip / rdpenalty=0 / psy-rd=2.00 / psy-rdoq=0.00 / no-rd-refine / no-lossless / cbqpoffs=0 / crqpoffs=0 / rc=crf / crf=16.0 / qcomp=0.60 / qpstep=4 / stats-write=0 / stats-read=0 / vbv-maxrate=160000 / vbv-bufsize=160000 / vbv-init=0.9 / crf-max=0.0 / crf-min=0.0 / ipratio=1.40 / pbratio=1.30 / aq-mode=1 / aq-strength=1.00 / cutree / zone-count=0 / no-strict-cbr / qg-size=32 / no-rc-grain / qpmax=69 / qpmin=0 / no-const-vbv / sar=1 / overscan=0 / videoformat=5 / range=0 / colorprim=2 / transfer=2 / colormatrix=2 / chromaloc=0 / display-window=0 / max-cll=0,0 / min-luma=0 / max-luma=1023 / log2-max-poc-lsb=8 / vui-timing-info / vui-hrd-info / slices=1 / opt-qp-pps / opt-ref-list-length-pps / no-multi-pass-opt-rps / scenecut-bias=0.05 / no-opt-cu-delta-qp / no-aq-motion / no-hdr / no-hdr-opt / no-dhdr10-opt / no-idr-recovery-sei / analysis-reuse-level=5 / scale-factor=0 / refine-intra=0 / refine-inter=0 / refine-mv=0 / refine-ctu-distortion=0 / no-limit-sao / ctu-info=0 / no-lowpass-dct / refine-analysis-type=0 / copy-pic=1 / max-ausize-factor=1.0 / no-dynamic-refine / no-single-sei / no-hevc-aq / qp-adaptation-range=1.00
  22. Language                                 : English
  23. Default                                  : Yes
  24. Forced                                   : No

  25. Audio #1
  26. ID                                       : 2
  27. Format                                   : MLP FBA 16-ch
  28. Format/Info                              : Meridian Lossless Packing FBA with 16-channel presentation
  29. Commercial name                          : Dolby TrueHD with Dolby Atmos
  30. Codec ID                                 : A_TRUEHD
  31. Duration                                 : 2 h 7 min
  32. Bit rate mode                            : Variable
  33. Bit rate                                 : 4 877 kb/s
  34. Maximum bit rate                         : 9 060 kb/s
  35. Channel(s)                               : 8 channels
  36. Channel layout                           : L R C LFE Ls Rs Lb Rb
  37. Sampling rate                            : 48.0 kHz
  38. Frame rate                               : 1 200.000 FPS (40 SPF)
  39. Compression mode                         : Lossless
  40. Stream size                              : 4.36 GiB (13%)
  41. Title                                    : Aladdin.2019.2160p.BluRay.x265.10bit.SDR.DTS-HD.MA.TrueHD.7.1.Atmos-SWTYBLZ
  42. Language                                 : English
  43. Default                                  : Yes
  44. Forced                                   : No
  45. Number of dynamic objects                : 13
  46. Bed channel count                        : 1 channel
  47. Bed channel configuration                : LFE

  48. Audio #2
  49. ID                                       : 3
  50. Format                                   : DTS XLL
  51. Format/Info                              : Digital Theater Systems
  52. Commercial name                          : DTS-HD Master Audio
  53. Codec ID                                 : A_DTS
  54. Duration                                 : 2 h 7 min
  55. Bit rate mode                            : Variable
  56. Bit rate                                 : 4 165 kb/s
  57. Channel(s)                               : 8 channels
  58. Channel layout                           : C L R LFE Lb Rb Lss Rss
  59. Sampling rate                            : 48.0 kHz
  60. Frame rate                               : 93.750 FPS (512 SPF)
  61. Bit depth                                : 24 bits
  62. Compression mode                         : Lossless
  63. Stream size                              : 3.72 GiB (11%)
  64. Title                                    : Aladdin.2019.2160p.BluRay.x265.10bit.SDR.DTS-HD.MA.TrueHD.7.1.Atmos-SWTYBLZ
  65. Language                                 : English
  66. Default                                  : No
  67. Forced                                   : No

  68. Audio #3
  69. ID                                       : 4
  70. Format                                   : AC-3
  71. Format/Info                              : Audio Coding 3
  72. Commercial name                          : Dolby Digital
  73. Codec ID                                 : A_AC3
  74. Duration                                 : 2 h 7 min
  75. Bit rate mode                            : Constant
  76. Bit rate                                 : 640 kb/s
  77. Channel(s)                               : 6 channels
  78. Channel layout                           : L R C LFE Ls Rs
  79. Sampling rate                            : 48.0 kHz
  80. Frame rate                               : 31.250 FPS (1536 SPF)
  81. Bit depth                                : 16 bits
  82. Compression mode                         : Lossy
  83. Stream size                              : 586 MiB (2%)
  84. Title                                    : Aladdin.2019.2160p.BluRay.x265.10bit.SDR.DTS-HD.MA.TrueHD.7.1.Atmos-SWTYBLZ
  85. Language                                 : English
  86. Service kind                             : Complete Main
  87. Default                                  : No
  88. Forced                                   : No

  89. Text #1
  90. ID                                       : 5
  91. Format                                   : UTF-8
  92. Codec ID                                 : S_TEXT/UTF8
  93. Codec ID/Info                            : UTF-8 Plain Text
  94. Duration                                 : 2 h 7 min
  95. Bit rate                                 : 63 b/s
  96. Count of elements                        : 2112
  97. Stream size                              : 59.2 KiB (0%)
  98. Title                                    : English-SRT
  99. Language                                 : English
  100. Default                                  : Yes
  101. Forced                                   : No

  102. Text #2
  103. ID                                       : 6
  104. Format                                   : PGS
  105. Muxing mode                              : zlib
  106. Codec ID                                 : S_HDMV/PGS
  107. Codec ID/Info                            : Picture based subtitle format used on BDs/HD-DVDs
  108. Duration                                 : 2 h 7 min
  109. Bit rate                                 : 46.8 kb/s
  110. Count of elements                        : 4858
  111. Stream size                              : 42.5 MiB (0%)
  112. Title                                    : English-PGS
  113. Language                                 : English
  114. Default                                  : No
  115. Forced                                   : No

  116. Text #3
  117. ID                                       : 7
  118. Format                                   : PGS
  119. Muxing mode                              : zlib
  120. Codec ID                                 : S_HDMV/PGS
  121. Codec ID/Info                            : Picture based subtitle format used on BDs/HD-DVDs
  122. Duration                                 : 2 h 6 min
  123. Bit rate                                 : 36.1 kb/s
  124. Count of elements                        : 3600
  125. Stream size                              : 32.7 MiB (0%)
  126. Title                                    : French-PGS
  127. Language                                 : French
  128. Default                                  : No
  129. Forced                                   : No

  130. Text #4
  131. ID                                       : 8
  132. Format                                   : PGS
  133. Muxing mode                              : zlib
  134. Codec ID                                 : S_HDMV/PGS
  135. Codec ID/Info                            : Picture based subtitle format used on BDs/HD-DVDs
  136. Duration                                 : 2 h 6 min
  137. Bit rate                                 : 32.2 kb/s
  138. Count of elements                        : 3422
  139. Stream size                              : 29.2 MiB (0%)
  140. Title                                    : French-PGS
  141. Language                                 : French
  142. Default                                  : No
  143. Forced                                   : No

  144. Text #5
  145. ID                                       : 9
  146. Format                                   : PGS
  147. Muxing mode                              : zlib
  148. Codec ID                                 : S_HDMV/PGS
  149. Codec ID/Info                            : Picture based subtitle format used on BDs/HD-DVDs
  150. Duration                                 : 2 h 6 min
  151. Bit rate                                 : 35.5 kb/s
  152. Count of elements                        : 3846
  153. Stream size                              : 32.2 MiB (0%)
  154. Title                                    : German-PGS
  155. Language                                 : German
  156. Default                                  : No
  157. Forced                                   : No

  158. Text #6
  159. ID                                       : 10
  160. Format                                   : PGS
  161. Muxing mode                              : zlib
  162. Codec ID                                 : S_HDMV/PGS
  163. Codec ID/Info                            : Picture based subtitle format used on BDs/HD-DVDs
  164. Duration                                 : 2 h 6 min
  165. Bit rate                                 : 34.8 kb/s
  166. Count of elements                        : 3570
  167. Stream size                              : 31.6 MiB (0%)
  168. Title                                    : Italian-PGS
  169. Language                                 : Italian
  170. Default                                  : No
  171. Forced                                   : No

  172. Text #7
  173. ID                                       : 11
  174. Format                                   : PGS
  175. Muxing mode                              : zlib
  176. Codec ID                                 : S_HDMV/PGS
  177. Codec ID/Info                            : Picture based subtitle format used on BDs/HD-DVDs
  178. Duration                                 : 2 h 6 min
  179. Bit rate                                 : 27.0 kb/s
  180. Count of elements                        : 3322
  181. Stream size                              : 24.6 MiB (0%)
  182. Title                                    : Japanese-PGS
  183. Language                                 : Japanese
  184. Default                                  : No
  185. Forced                                   : No

  186. Text #8
  187. ID                                       : 12
  188. Format                                   : PGS
  189. Muxing mode                              : zlib
  190. Codec ID                                 : S_HDMV/PGS
  191. Codec ID/Info                            : Picture based subtitle format used on BDs/HD-DVDs
  192. Duration                                 : 2 h 0 min
  193. Bit rate                                 : 37.9 kb/s
  194. Count of elements                        : 3570
  195. Stream size                              : 32.6 MiB (0%)
  196. Title                                    : Spanish-PGS
  197. Language                                 : Spanish
  198. Default                                  : No
  199. Forced                                   : No

  200. Menu
  201. 00:00:00.000                             : en:Chapter 01
  202. 00:04:49.372                             : en:Chapter 02
  203. 00:13:04.658                             : en:Chapter 03
  204. 00:18:55.759                             : en:Chapter 04
  205. 00:26:18.410                             : en:Chapter 05
  206. 00:30:26.324                             : en:Chapter 06
  207. 00:39:51.889                             : en:Chapter 07
  208. 00:54:50.161                             : en:Chapter 08
  209. 01:02:18.651                             : en:Chapter 09
  210. 01:09:19.488                             : en:Chapter 10
  211. 01:21:53.033                             : en:Chapter 11
  212. 01:33:51.417                             : en:Chapter 12
  213. 01:38:48.380                             : en:Chapter 13
  214. 01:45:19.396                             : en:Chapter 14
  215. 01:53:07.030                             : en:Chapter 15
  216. 01:59:38.462                             : en:Chapter 16
复制代码

阿拉丁/阿拉丁真人版 Aladdin.2019.2160p.BluRay.x265.10bit.SDR.DTS-HD.MA.TrueHD.7.1.Atmos-SWTYBLZ 34.86GB-2.png 121541ohzbt8ta80p9zba9.png 阿拉丁/阿拉丁真人版 Aladdin.2019.2160p.BluRay.x265.10bit.SDR.DTS-HD.MA.TrueHD.7.1.Atmos-SWTYBLZ 34.86GB-4.png 阿拉丁/阿拉丁真人版 Aladdin.2019.2160p.BluRay.x265.10bit.SDR.DTS-HD.MA.TrueHD.7.1.Atmos-SWTYBLZ 34.86GB-5.png 阿拉丁/阿拉丁真人版 Aladdin.2019.2160p.BluRay.x265.10bit.SDR.DTS-HD.MA.TrueHD.7.1.Atmos-SWTYBLZ 34.86GB-6.png 阿拉丁/阿拉丁真人版 Aladdin.2019.2160p.BluRay.x265.10bit.SDR.DTS-HD.MA.TrueHD.7.1.Atmos-SWTYBLZ 34.86GB-7.png 阿拉丁/阿拉丁真人版 Aladdin.2019.2160p.BluRay.x265.10bit.SDR.DTS-HD.MA.TrueHD.7.1.Atmos-SWTYBLZ 34.86GB-8.png






开通VIP免费下载本站所有资源---点这里
新手必看:资源下载、资源播放、字幕使用、等常见问题---点这里
回复

使用道具 举报

发表于 2019-9-5 12:37:42 | 显示全部楼层
真人版是不错的选择!感谢分享!!!!
开通VIP免费下载本站所有资源---点这里
新手必看:资源下载、资源播放、字幕使用、等常见问题---点这里
回复 支持 反对

使用道具 举报

发表于 2019-9-6 10:32:39 | 显示全部楼层
感谢楼主分享
开通VIP免费下载本站所有资源---点这里
新手必看:资源下载、资源播放、字幕使用、等常见问题---点这里
回复 支持 反对

使用道具 举报

懒得打字嘛,点击右侧快捷回复 【右侧内容,后台自定义】
您需要登录后才可以回帖 登录 | 立即加入

本版积分规则

现在加入蓝光电影网,注册一个账号

QQ| 手机版|小黑屋| 蓝光电影网 |网站地图

Copyright © 2015-2019 Comsenz Inc.  Template by 蓝光电影网 All Rights Reserved.

Powered by 蓝光电影网 X3.4

特别声明:本站所有资源均由网上收集而来,版权归原影音公司所有,如果侵犯了你的权益,请通知我们,我们会及时删除侵权内容.

快速回复 返回顶部 返回列表