找回密码

蓝光电影网

查看: 268|回复: 8

[REMUX.HEVC] 阿拉丁/阿拉丁真人版 Aladdin.2019.2160p.BluRay.REMUX.HEVC.DTS-HD.MA.TrueHD.7.1.Atmos-FGT 60.60GB

[复制链接]

 成长值: 1345

发表于 2019-9-5 10:58:35 | 显示全部楼层 |阅读模式
阿拉丁/阿拉丁真人版 Aladdin.2019.2160p.BluRay.REMUX.HEVC.DTS-HD.MA.TrueHD.7.1.Atmos-FGT 60.60GB-1.png

译  名 阿拉丁 / 阿拉丁真人版
片  名 Aladdin
年  代 2019
产  地 美国
类  别 爱情 / 歌舞 / 奇幻 / 冒险
语  言 英语
上映日期 2019-05-24(美国/中国大陆)
IMDb评分  7.4/10 from 88756 users
IMDb链接  http://www.imdb.com/title/tt6139732
豆瓣评分 7.8/10 from 131777 users
豆瓣链接 https://movie.douban.com/subject/26891256/
片  长 128分钟
导  演 盖·里奇 Guy Ritchie
编  剧 盖·里奇 Guy Ritchie / 约翰·奥古斯特 John August
主  演 梅纳·玛索德 Mena Massoud
       娜奥米·斯科特 Naomi Scott
       威尔·史密斯 Will Smith
       马尔万·肯扎里 Marwan Kenzari
       纳维德·内加班 Navid Negahban
       纽曼·阿卡 Numan Acar
       艾伦·图代克 Alan Tudyk
       比利·马格努森 Billy Magnussen
       纳西姆·帕杜雷德 Nasim Pedrad
       卡米尔·雷米泽斯基 Kamil Lemieszewski
       乔伊·安沙 Joey Ansah
       贾格·帕特尔 Jag Patel
       贝恩·科拉科 Bern Colla?o
       凯西·克莱尔 Cassie Clare
       威尔·布拉格罗夫 Will Blagrove
       哈廷·帕特尔 Hiten Patel
       阿米尔鲍特罗斯 Amir Boutrous
       埃里克·可可 Eric Coco
       弗兰·塔格 Fran Targ
       阿玛尔·阿达蒂亚 Amar Adatia
       乔丹·A·纳什 Jordan A. Nash
       通恰伊·古奈什 Tuncay Gunes
       塞尔哈特·梅汀 Serhat Metin
       凯文·马塔迪恩 Kevin Matadeen
       保利娜·博内瓦 Paulina Boneva
       塔希尔·布尔汉 Tahir Burhan
       亚当·柯林斯 Adam Collins


标  签 迪士尼 | 童话 | 奇幻 | 魔幻 | 爱情 | 音乐 | 美国 | 2019

简  介  

  在充满异域风情的古代阿拉伯王国,善良的穷小子阿拉丁(莫纳·马苏德 饰)和勇敢的茉莉公主(娜奥米·斯科特 饰)浪漫邂逅,在可以满足主人三个愿望的神灯精灵(威尔·史密斯 饰)的帮助下,两人踏上了一次寻找真爱和自我的魔幻冒险。
  1. Video
  2. ID                                       : 1
  3. Format                                   : HEVC
  4. Format/Info                              : High Efficiency Video Coding
  5. Format profile                           : Main <a href="/cdn-cgi/l/email-protection" class="__cf_email__" data-cfemail="0435344448312a35">[email protected]</a>@High
  6. HDR format                               : SMPTE ST 2086, HDR10 compatible
  7. Codec ID                                 : V_MPEGH/ISO/HEVC
  8. Duration                                 : 2 h 7 min
  9. Bit rate                                 : 49.0 Mb/s
  10. Width                                    : 3 840 pixels
  11. Height                                   : 2 160 pixels
  12. Display aspect ratio                     : 16:9
  13. Frame rate mode                          : Constant
  14. Frame rate                               : 23.976 (24000/1001) FPS
  15. Color space                              : YUV
  16. Chroma subsampling                       : 4:2:0 (Type 2)
  17. Bit depth                                : 10 bits
  18. Bits/(Pixel*Frame)                       : 0.246
  19. Stream size                              : 43.8 GiB (72%)
  20. Title                                    : Aladdin.2019.2160p.BluRay.REMUX.HEVC.DTS-HD.MA.TrueHD.7.1.Atmos-FGT
  21. Writing library                          : ATEME Titan File 3.9.0 (4.9.0.0)        
  22. Language                                 : English
  23. Default                                  : No
  24. Forced                                   : No
  25. Color range                              : Limited
  26. Color primaries                          : BT.2020
  27. Transfer characteristics                 : PQ
  28. Matrix coefficients                      : BT.2020 non-constant
  29. Mastering display color primaries        : Display P3
  30. Mastering display luminance              : min: 0.0050 cd/m2, max: 4000 cd/m2

  31. Audio #1
  32. ID                                       : 2
  33. Format                                   : MLP FBA 16-ch
  34. Format/Info                              : Meridian Lossless Packing FBA with 16-channel presentation
  35. Commercial name                          : Dolby TrueHD with Dolby Atmos
  36. Codec ID                                 : A_TRUEHD
  37. Duration                                 : 2 h 7 min
  38. Bit rate mode                            : Variable
  39. Bit rate                                 : 4 877 kb/s
  40. Maximum bit rate                         : 9 060 kb/s
  41. Channel(s)                               : 8 channels
  42. Channel layout                           : L R C LFE Ls Rs Lb Rb
  43. Sampling rate                            : 48.0 kHz
  44. Frame rate                               : 1 200.000 FPS (40 SPF)
  45. Compression mode                         : Lossless
  46. Stream size                              : 4.36 GiB (7%)
  47. Title                                    : Aladdin.2019.2160p.BluRay.REMUX.HEVC.DTS-HD.MA.TrueHD.7.1.Atmos-FGT
  48. Language                                 : English
  49. Default                                  : Yes
  50. Forced                                   : No
  51. Number of dynamic objects                : 13
  52. Bed channel count                        : 1 channel
  53. Bed channel configuration                : LFE

  54. Audio #2
  55. ID                                       : 3
  56. Format                                   : DTS XLL
  57. Format/Info                              : Digital Theater Systems
  58. Commercial name                          : DTS-HD Master Audio
  59. Codec ID                                 : A_DTS
  60. Duration                                 : 2 h 7 min
  61. Bit rate mode                            : Variable
  62. Bit rate                                 : 4 165 kb/s
  63. Channel(s)                               : 8 channels
  64. Channel layout                           : C L R LFE Lb Rb Lss Rss
  65. Sampling rate                            : 48.0 kHz
  66. Frame rate                               : 93.750 FPS (512 SPF)
  67. Bit depth                                : 24 bits
  68. Compression mode                         : Lossless
  69. Stream size                              : 3.72 GiB (6%)
  70. Title                                    : Aladdin.2019.2160p.BluRay.REMUX.HEVC.DTS-HD.MA.TrueHD.7.1.Atmos-FGT
  71. Language                                 : English
  72. Default                                  : No
  73. Forced                                   : No

  74. Audio #3
  75. ID                                       : 4
  76. Format                                   : AC-3
  77. Format/Info                              : Audio Coding 3
  78. Commercial name                          : Dolby Digital
  79. Codec ID                                 : A_AC3
  80. Duration                                 : 2 h 7 min
  81. Bit rate mode                            : Constant
  82. Bit rate                                 : 640 kb/s
  83. Channel(s)                               : 6 channels
  84. Channel layout                           : L R C LFE Ls Rs
  85. Sampling rate                            : 48.0 kHz
  86. Frame rate                               : 31.250 FPS (1536 SPF)
  87. Bit depth                                : 16 bits
  88. Compression mode                         : Lossy
  89. Stream size                              : 586 MiB (1%)
  90. Title                                    : Aladdin.2019.2160p.BluRay.REMUX.HEVC.DTS-HD.MA.TrueHD.7.1.Atmos-FGT
  91. Language                                 : English
  92. Service kind                             : Complete Main
  93. Default                                  : No
  94. Forced                                   : No

  95. Audio #4
  96. ID                                       : 5
  97. Format                                   : AC-3
  98. Format/Info                              : Audio Coding 3
  99. Commercial name                          : Dolby Digital
  100. Codec ID                                 : A_AC3
  101. Duration                                 : 2 h 7 min
  102. Bit rate mode                            : Constant
  103. Bit rate                                 : 320 kb/s
  104. Channel(s)                               : 2 channels
  105. Channel layout                           : L R
  106. Sampling rate                            : 48.0 kHz
  107. Frame rate                               : 31.250 FPS (1536 SPF)
  108. Bit depth                                : 16 bits
  109. Compression mode                         : Lossy
  110. Stream size                              : 293 MiB (0%)
  111. Title                                    : Aladdin.2019.2160p.BluRay.REMUX.HEVC.DTS-HD.MA.TrueHD.7.1.Atmos-FGT
  112. Language                                 : English
  113. Service kind                             : Complete Main
  114. Default                                  : No
  115. Forced                                   : No

  116. Audio #5
  117. ID                                       : 6
  118. Format                                   : E-AC-3
  119. Format/Info                              : Enhanced AC-3
  120. Commercial name                          : Dolby Digital Plus
  121. Format profile                           : Blu-ray Disc
  122. Codec ID                                 : A_EAC3
  123. Duration                                 : 2 h 7 min
  124. Bit rate mode                            : Constant
  125. Bit rate                                 : 1 024 kb/s
  126. Channel(s)                               : 8 channels
  127. Channel layout                           : L R C LFE Ls Rs Lb Rb
  128. Sampling rate                            : 48.0 kHz
  129. Frame rate                               : 31.250 FPS (1536 SPF)
  130. Compression mode                         : Lossy
  131. Stream size                              : 937 MiB (2%)
  132. Title                                    : Aladdin.2019.2160p.BluRay.REMUX.HEVC.DTS-HD.MA.TrueHD.7.1.Atmos-FGT
  133. Language                                 : French
  134. Service kind                             : Complete Main
  135. Default                                  : No
  136. Forced                                   : No

  137. Audio #6
  138. ID                                       : 7
  139. Format                                   : AC-3
  140. Format/Info                              : Audio Coding 3
  141. Commercial name                          : Dolby Digital
  142. Codec ID                                 : A_AC3
  143. Duration                                 : 2 h 7 min
  144. Bit rate mode                            : Constant
  145. Bit rate                                 : 576 kb/s
  146. Channel(s)                               : 6 channels
  147. Channel layout                           : L R C LFE Ls Rs
  148. Sampling rate                            : 48.0 kHz
  149. Frame rate                               : 31.250 FPS (1536 SPF)
  150. Bit depth                                : 16 bits
  151. Compression mode                         : Lossy
  152. Stream size                              : 527 MiB (1%)
  153. Title                                    : Aladdin.2019.2160p.BluRay.REMUX.HEVC.DTS-HD.MA.TrueHD.7.1.Atmos-FGT
  154. Language                                 : French
  155. Service kind                             : Complete Main
  156. Default                                  : No
  157. Forced                                   : No

  158. Audio #7
  159. ID                                       : 8
  160. Format                                   : AC-3
  161. Format/Info                              : Audio Coding 3
  162. Commercial name                          : Dolby Digital
  163. Codec ID                                 : A_AC3
  164. Duration                                 : 2 h 7 min
  165. Bit rate mode                            : Constant
  166. Bit rate                                 : 640 kb/s
  167. Channel(s)                               : 6 channels
  168. Channel layout                           : L R C LFE Ls Rs
  169. Sampling rate                            : 48.0 kHz
  170. Frame rate                               : 31.250 FPS (1536 SPF)
  171. Bit depth                                : 16 bits
  172. Compression mode                         : Lossy
  173. Stream size                              : 586 MiB (1%)
  174. Title                                    : Aladdin.2019.2160p.BluRay.REMUX.HEVC.DTS-HD.MA.TrueHD.7.1.Atmos-FGT
  175. Language                                 : French
  176. Service kind                             : Complete Main
  177. Default                                  : No
  178. Forced                                   : No

  179. Audio #8
  180. ID                                       : 9
  181. Format                                   : E-AC-3
  182. Format/Info                              : Enhanced AC-3
  183. Commercial name                          : Dolby Digital Plus
  184. Format profile                           : Blu-ray Disc
  185. Codec ID                                 : A_EAC3
  186. Duration                                 : 2 h 7 min
  187. Bit rate mode                            : Constant
  188. Bit rate                                 : 1 024 kb/s
  189. Channel(s)                               : 8 channels
  190. Channel layout                           : L R C LFE Ls Rs Lb Rb
  191. Sampling rate                            : 48.0 kHz
  192. Frame rate                               : 31.250 FPS (1536 SPF)
  193. Compression mode                         : Lossy
  194. Stream size                              : 937 MiB (2%)
  195. Title                                    : Aladdin.2019.2160p.BluRay.REMUX.HEVC.DTS-HD.MA.TrueHD.7.1.Atmos-FGT
  196. Language                                 : Spanish
  197. Service kind                             : Complete Main
  198. Default                                  : No
  199. Forced                                   : No

  200. Audio #9
  201. ID                                       : 10
  202. Format                                   : AC-3
  203. Format/Info                              : Audio Coding 3
  204. Commercial name                          : Dolby Digital
  205. Codec ID                                 : A_AC3
  206. Duration                                 : 2 h 7 min
  207. Bit rate mode                            : Constant
  208. Bit rate                                 : 576 kb/s
  209. Channel(s)                               : 6 channels
  210. Channel layout                           : L R C LFE Ls Rs
  211. Sampling rate                            : 48.0 kHz
  212. Frame rate                               : 31.250 FPS (1536 SPF)
  213. Bit depth                                : 16 bits
  214. Compression mode                         : Lossy
  215. Stream size                              : 527 MiB (1%)
  216. Title                                    : Aladdin.2019.2160p.BluRay.REMUX.HEVC.DTS-HD.MA.TrueHD.7.1.Atmos-FGT
  217. Language                                 : Spanish
  218. Service kind                             : Complete Main
  219. Default                                  : No
  220. Forced                                   : No

  221. Audio #10
  222. ID                                       : 11
  223. Format                                   : E-AC-3
  224. Format/Info                              : Enhanced AC-3
  225. Commercial name                          : Dolby Digital Plus
  226. Format profile                           : Blu-ray Disc
  227. Codec ID                                 : A_EAC3
  228. Duration                                 : 2 h 7 min
  229. Bit rate mode                            : Constant
  230. Bit rate                                 : 1 024 kb/s
  231. Channel(s)                               : 8 channels
  232. Channel layout                           : L R C LFE Ls Rs Lb Rb
  233. Sampling rate                            : 48.0 kHz
  234. Frame rate                               : 31.250 FPS (1536 SPF)
  235. Compression mode                         : Lossy
  236. Stream size                              : 937 MiB (2%)
  237. Title                                    : Aladdin.2019.2160p.BluRay.REMUX.HEVC.DTS-HD.MA.TrueHD.7.1.Atmos-FGT
  238. Language                                 : Italian
  239. Service kind                             : Complete Main
  240. Default                                  : No
  241. Forced                                   : No

  242. Audio #11
  243. ID                                       : 12
  244. Format                                   : AC-3
  245. Format/Info                              : Audio Coding 3
  246. Commercial name                          : Dolby Digital
  247. Codec ID                                 : A_AC3
  248. Duration                                 : 2 h 7 min
  249. Bit rate mode                            : Constant
  250. Bit rate                                 : 576 kb/s
  251. Channel(s)                               : 6 channels
  252. Channel layout                           : L R C LFE Ls Rs
  253. Sampling rate                            : 48.0 kHz
  254. Frame rate                               : 31.250 FPS (1536 SPF)
  255. Bit depth                                : 16 bits
  256. Compression mode                         : Lossy
  257. Stream size                              : 527 MiB (1%)
  258. Title                                    : Aladdin.2019.2160p.BluRay.REMUX.HEVC.DTS-HD.MA.TrueHD.7.1.Atmos-FGT
  259. Language                                 : Italian
  260. Service kind                             : Complete Main
  261. Default                                  : No
  262. Forced                                   : No

  263. Audio #12
  264. ID                                       : 13
  265. Format                                   : E-AC-3
  266. Format/Info                              : Enhanced AC-3
  267. Commercial name                          : Dolby Digital Plus
  268. Format profile                           : Blu-ray Disc
  269. Codec ID                                 : A_EAC3
  270. Duration                                 : 2 h 7 min
  271. Bit rate mode                            : Constant
  272. Bit rate                                 : 1 024 kb/s
  273. Channel(s)                               : 8 channels
  274. Channel layout                           : L R C LFE Ls Rs Lb Rb
  275. Sampling rate                            : 48.0 kHz
  276. Frame rate                               : 31.250 FPS (1536 SPF)
  277. Compression mode                         : Lossy
  278. Stream size                              : 937 MiB (2%)
  279. Title                                    : Aladdin.2019.2160p.BluRay.REMUX.HEVC.DTS-HD.MA.TrueHD.7.1.Atmos-FGT
  280. Language                                 : German
  281. Service kind                             : Complete Main
  282. Default                                  : No
  283. Forced                                   : No

  284. Audio #13
  285. ID                                       : 14
  286. Format                                   : AC-3
  287. Format/Info                              : Audio Coding 3
  288. Commercial name                          : Dolby Digital
  289. Codec ID                                 : A_AC3
  290. Duration                                 : 2 h 7 min
  291. Bit rate mode                            : Constant
  292. Bit rate                                 : 576 kb/s
  293. Channel(s)                               : 6 channels
  294. Channel layout                           : L R C LFE Ls Rs
  295. Sampling rate                            : 48.0 kHz
  296. Frame rate                               : 31.250 FPS (1536 SPF)
  297. Bit depth                                : 16 bits
  298. Compression mode                         : Lossy
  299. Stream size                              : 527 MiB (1%)
  300. Title                                    : Aladdin.2019.2160p.BluRay.REMUX.HEVC.DTS-HD.MA.TrueHD.7.1.Atmos-FGT
  301. Language                                 : German
  302. Service kind                             : Complete Main
  303. Default                                  : No
  304. Forced                                   : No

  305. Audio #14
  306. ID                                       : 15
  307. Format                                   : E-AC-3
  308. Format/Info                              : Enhanced AC-3
  309. Commercial name                          : Dolby Digital Plus
  310. Format profile                           : Blu-ray Disc
  311. Codec ID                                 : A_EAC3
  312. Duration                                 : 2 h 7 min
  313. Bit rate mode                            : Constant
  314. Bit rate                                 : 1 024 kb/s
  315. Channel(s)                               : 8 channels
  316. Channel layout                           : L R C LFE Ls Rs Lb Rb
  317. Sampling rate                            : 48.0 kHz
  318. Frame rate                               : 31.250 FPS (1536 SPF)
  319. Compression mode                         : Lossy
  320. Stream size                              : 937 MiB (2%)
  321. Title                                    : Aladdin.2019.2160p.BluRay.REMUX.HEVC.DTS-HD.MA.TrueHD.7.1.Atmos-FGT
  322. Language                                 : Japanese
  323. Service kind                             : Complete Main
  324. Default                                  : No
  325. Forced                                   : No

  326. Audio #15
  327. ID                                       : 16
  328. Format                                   : AC-3
  329. Format/Info                              : Audio Coding 3
  330. Commercial name                          : Dolby Digital
  331. Codec ID                                 : A_AC3
  332. Duration                                 : 2 h 7 min
  333. Bit rate mode                            : Constant
  334. Bit rate                                 : 576 kb/s
  335. Channel(s)                               : 6 channels
  336. Channel layout                           : L R C LFE Ls Rs
  337. Sampling rate                            : 48.0 kHz
  338. Frame rate                               : 31.250 FPS (1536 SPF)
  339. Bit depth                                : 16 bits
  340. Compression mode                         : Lossy
  341. Stream size                              : 527 MiB (1%)
  342. Title                                    : Aladdin.2019.2160p.BluRay.REMUX.HEVC.DTS-HD.MA.TrueHD.7.1.Atmos-FGT
  343. Language                                 : Japanese
  344. Service kind                             : Complete Main
  345. Default                                  : No
  346. Forced                                   : No

  347. Text #1
  348. ID                                       : 17
  349. Format                                   : UTF-8
  350. Codec ID                                 : S_TEXT/UTF8
  351. Codec ID/Info                            : UTF-8 Plain Text
  352. Duration                                 : 2 h 6 min
  353. Bit rate                                 : 63 b/s
  354. Count of elements                        : 2111
  355. Stream size                              : 59.1 KiB (0%)
  356. Title                                    : English-SRT
  357. Language                                 : English
  358. Default                                  : Yes
  359. Forced                                   : No

  360. Text #2
  361. ID                                       : 18
  362. Format                                   : PGS
  363. Muxing mode                              : zlib
  364. Codec ID                                 : S_HDMV/PGS
  365. Codec ID/Info                            : Picture based subtitle format used on BDs/HD-DVDs
  366. Duration                                 : 2 h 7 min
  367. Bit rate                                 : 46.8 kb/s
  368. Count of elements                        : 4858
  369. Stream size                              : 42.5 MiB (0%)
  370. Title                                    : English-PGS
  371. Language                                 : English
  372. Default                                  : No
  373. Forced                                   : No

  374. Text #3
  375. ID                                       : 19
  376. Format                                   : PGS
  377. Muxing mode                              : zlib
  378. Codec ID                                 : S_HDMV/PGS
  379. Codec ID/Info                            : Picture based subtitle format used on BDs/HD-DVDs
  380. Duration                                 : 2 h 6 min
  381. Bit rate                                 : 32.2 kb/s
  382. Count of elements                        : 3422
  383. Stream size                              : 29.2 MiB (0%)
  384. Title                                    : French-PGS
  385. Language                                 : French
  386. Default                                  : No
  387. Forced                                   : No

  388. Text #4
  389. ID                                       : 20
  390. Format                                   : PGS
  391. Muxing mode                              : zlib
  392. Codec ID                                 : S_HDMV/PGS
  393. Codec ID/Info                            : Picture based subtitle format used on BDs/HD-DVDs
  394. Duration                                 : 2 h 6 min
  395. Bit rate                                 : 36.1 kb/s
  396. Count of elements                        : 3600
  397. Stream size                              : 32.7 MiB (0%)
  398. Title                                    : French-PGS
  399. Language                                 : French
  400. Default                                  : No
  401. Forced                                   : No

  402. Text #5
  403. ID                                       : 21
  404. Format                                   : PGS
  405. Muxing mode                              : zlib
  406. Codec ID                                 : S_HDMV/PGS
  407. Codec ID/Info                            : Picture based subtitle format used on BDs/HD-DVDs
  408. Duration                                 : 2 h 0 min
  409. Bit rate                                 : 37.9 kb/s
  410. Count of elements                        : 3570
  411. Stream size                              : 32.6 MiB (0%)
  412. Title                                    : Spanish-PGS
  413. Language                                 : Spanish
  414. Default                                  : No
  415. Forced                                   : No

  416. Text #6
  417. ID                                       : 22
  418. Format                                   : PGS
  419. Muxing mode                              : zlib
  420. Codec ID                                 : S_HDMV/PGS
  421. Codec ID/Info                            : Picture based subtitle format used on BDs/HD-DVDs
  422. Duration                                 : 2 h 6 min
  423. Bit rate                                 : 34.8 kb/s
  424. Count of elements                        : 3570
  425. Stream size                              : 31.6 MiB (0%)
  426. Title                                    : Italian-PGS
  427. Language                                 : Italian
  428. Default                                  : No
  429. Forced                                   : No

  430. Text #7
  431. ID                                       : 23
  432. Format                                   : PGS
  433. Muxing mode                              : zlib
  434. Codec ID                                 : S_HDMV/PGS
  435. Codec ID/Info                            : Picture based subtitle format used on BDs/HD-DVDs
  436. Duration                                 : 2 h 6 min
  437. Bit rate                                 : 35.5 kb/s
  438. Count of elements                        : 3846
  439. Stream size                              : 32.2 MiB (0%)
  440. Title                                    : German-PGS
  441. Language                                 : German
  442. Default                                  : No
  443. Forced                                   : No

  444. Text #8
  445. ID                                       : 24
  446. Format                                   : PGS
  447. Muxing mode                              : zlib
  448. Codec ID                                 : S_HDMV/PGS
  449. Codec ID/Info                            : Picture based subtitle format used on BDs/HD-DVDs
  450. Duration                                 : 2 h 6 min
  451. Bit rate                                 : 27.0 kb/s
  452. Count of elements                        : 3322
  453. Stream size                              : 24.6 MiB (0%)
  454. Title                                    : Japanese-PGS
  455. Language                                 : Japanese
  456. Default                                  : No
  457. Forced                                   : No

  458. Text #9
  459. ID                                       : 25
  460. Format                                   : PGS
  461. Muxing mode                              : zlib
  462. Codec ID                                 : S_HDMV/PGS
  463. Codec ID/Info                            : Picture based subtitle format used on BDs/HD-DVDs
  464. Duration                                 : 1 s 356 ms
  465. Bit rate                                 : 60.6 kb/s
  466. Count of elements                        : 2
  467. Stream size                              : 10.0 KiB (0%)
  468. Title                                    : French-FORCED-PGS
  469. Language                                 : French
  470. Default                                  : No
  471. Forced                                   : No

  472. Text #10
  473. ID                                       : 26
  474. Format                                   : PGS
  475. Muxing mode                              : zlib
  476. Codec ID                                 : S_HDMV/PGS
  477. Codec ID/Info                            : Picture based subtitle format used on BDs/HD-DVDs
  478. Duration                                 : 1 h 58 min
  479. Bit rate                                 : 621 b/s
  480. Count of elements                        : 82
  481. Stream size                              : 539 KiB (0%)
  482. Title                                    : French-FORCED-PGS
  483. Language                                 : French
  484. Default                                  : No
  485. Forced                                   : No

  486. Text #11
  487. ID                                       : 27
  488. Format                                   : PGS
  489. Muxing mode                              : zlib
  490. Codec ID                                 : S_HDMV/PGS
  491. Codec ID/Info                            : Picture based subtitle format used on BDs/HD-DVDs
  492. Duration                                 : 1 h 11 min
  493. Bit rate                                 : 41 b/s
  494. Count of elements                        : 4
  495. Stream size                              : 21.8 KiB (0%)
  496. Title                                    : Spanish-FORCED-PGS
  497. Language                                 : Spanish
  498. Default                                  : No
  499. Forced                                   : No

  500. Text #12
  501. ID                                       : 28
  502. Format                                   : PGS
  503. Muxing mode                              : zlib
  504. Codec ID                                 : S_HDMV/PGS
  505. Codec ID/Info                            : Picture based subtitle format used on BDs/HD-DVDs
  506. Duration                                 : 1 s 606 ms
  507. Bit rate                                 : 49.2 kb/s
  508. Count of elements                        : 2
  509. Stream size                              : 9.65 KiB (0%)
  510. Title                                    : Japanese-FORCED-PGS
  511. Language                                 : Japanese
  512. Default                                  : No
  513. Forced                                   : No

  514. Menu
  515. 00:00:00.000                             : en:Chapter 01
  516. 00:04:49.372                             : en:Chapter 02
  517. 00:13:04.325                             : en:Chapter 03
  518. 00:18:55.759                             : en:Chapter 04
  519. 00:26:18.410                             : en:Chapter 05
  520. 00:30:26.282                             : en:Chapter 06
  521. 00:39:51.889                             : en:Chapter 07
  522. 00:54:50.161                             : en:Chapter 08
  523. 01:02:18.651                             : en:Chapter 09
  524. 01:09:19.488                             : en:Chapter 10
  525. 01:21:53.033                             : en:Chapter 11
  526. 01:33:51.417                             : en:Chapter 12
  527. 01:38:48.005                             : en:Chapter 13
  528. 01:45:19.396                             : en:Chapter 14
  529. 01:53:07.030                             : en:Chapter 15
  530. 01:59:38.462                             : en:Chapter 16
复制代码

阿拉丁/阿拉丁真人版 Aladdin.2019.2160p.BluRay.REMUX.HEVC.DTS-HD.MA.TrueHD.7.1.Atmos-FGT 60.60GB-2.png 阿拉丁/阿拉丁真人版 Aladdin.2019.2160p.BluRay.REMUX.HEVC.DTS-HD.MA.TrueHD.7.1.Atmos-FGT 60.60GB-3.png 阿拉丁/阿拉丁真人版 Aladdin.2019.2160p.BluRay.REMUX.HEVC.DTS-HD.MA.TrueHD.7.1.Atmos-FGT 60.60GB-4.png






开通VIP免费下载本站所有资源---点这里
新手必看:资源下载、资源播放、字幕使用、等常见问题---点这里
回复

使用道具 举报

 成长值: 380

发表于 2019-9-5 11:13:54 | 显示全部楼层
谢谢楼主无私分享。
开通VIP免费下载本站所有资源---点这里
新手必看:资源下载、资源播放、字幕使用、等常见问题---点这里
回复 支持 反对

使用道具 举报

 成长值: 2060

发表于 2019-9-5 11:56:25 | 显示全部楼层
谢谢楼主分享新资源
开通VIP免费下载本站所有资源---点这里
新手必看:资源下载、资源播放、字幕使用、等常见问题---点这里
回复 支持 反对

使用道具 举报

 成长值: 265

发表于 2019-9-5 14:03:00 | 显示全部楼层

我看不错噢 谢谢楼主!蓝光电影网越来越好!
开通VIP免费下载本站所有资源---点这里
新手必看:资源下载、资源播放、字幕使用、等常见问题---点这里
回复 支持 反对

使用道具 举报

 成长值: 265

发表于 2019-9-5 14:03:27 | 显示全部楼层
谢谢楼主分享新资源
开通VIP免费下载本站所有资源---点这里
新手必看:资源下载、资源播放、字幕使用、等常见问题---点这里
回复 支持 反对

使用道具 举报

发表于 2019-9-5 18:10:16 | 显示全部楼层

楼主太厉害了!楼主,电影应该很好看我觉得蓝光电影网真是个好地方!
开通VIP免费下载本站所有资源---点这里
新手必看:资源下载、资源播放、字幕使用、等常见问题---点这里
回复 支持 反对

使用道具 举报

发表于 2019-9-6 09:16:33 | 显示全部楼层
谢谢发片。
开通VIP免费下载本站所有资源---点这里
新手必看:资源下载、资源播放、字幕使用、等常见问题---点这里
回复

使用道具 举报

发表于 2019-9-6 22:41:46 | 显示全部楼层
楼主发贴辛苦了,谢谢楼主分享!我觉得蓝光电影网是注册对了!
开通VIP免费下载本站所有资源---点这里
新手必看:资源下载、资源播放、字幕使用、等常见问题---点这里
回复 支持 反对

使用道具 举报

发表于 6 天前 | 显示全部楼层

楼主太厉害了!楼主,电影应该很好看我觉得蓝光电影网真是个好地方!
开通VIP免费下载本站所有资源---点这里
新手必看:资源下载、资源播放、字幕使用、等常见问题---点这里
回复 支持 反对

使用道具 举报

懒得打字嘛,点击右侧快捷回复 【右侧内容,后台自定义】
您需要登录后才可以回帖 登录 | 立即加入

本版积分规则

现在加入蓝光电影网,注册一个账号

QQ| 手机版|小黑屋| 蓝光电影网 |网站地图

Copyright © 2015-2019 Comsenz Inc.  Template by 蓝光电影网 All Rights Reserved.

Powered by 蓝光电影网 X3.4

特别声明:本站所有资源均由网上收集而来,版权归原影音公司所有,如果侵犯了你的权益,请通知我们,我们会及时删除侵权内容.

快速回复 返回顶部 返回列表