找回密码

蓝光电影网

查看: 305|回复: 10

[2160p-WEB] 丧尸未逝 The.Dead.Dont.Die.2019.2160p.WEB.H265-DEFLATE 18.24GB

[复制链接]

 成长值: 1345

发表于 2019-9-4 10:59:13 | 显示全部楼层 |阅读模式
丧尸未逝 The.Dead.Dont.Die.2019.2160p.WEB.H265-DEFLATE 18.24GB-1.png

译  名 丧尸未逝 / Kill The Head / 丧尸死不完 / 死无可死(港) / 死者不死
片  名 The Dead Don't Die
年  代 2019
产  地 美国
类  别 喜剧 / 恐怖
语  言 英语
上映日期 2019-05-14(戛纳电影节) / 2019-06-14(美国)
IMDb评分  5.9/10 from 11426 users
IMDb链接  http://www.imdb.com/title/tt8695030
豆瓣评分 6.3/10 from 1348 users
豆瓣链接 https://movie.douban.com/subject/30274839/
片  长 103分钟(戛纳电影节)
导  演 吉姆·贾木许 Jim Jarmusch
编  剧 吉姆·贾木许 Jim Jarmusch
主  演 科洛·塞维尼 Chlo? Sevigny
       亚当·德赖弗 Adam Driver
       蒂尔达·斯文顿 Tilda Swinton
       史蒂夫·布西密 Steve Buscemi
       奥斯汀·巴特勒 Austin Butler
       比尔·默瑞 Bill Murray
       卡赖伯·兰德里·琼斯 Caleb Landry Jones
       赛琳娜·戈麦斯 Selena Gomez
       卡罗尔·凯恩 Carol Kane
       汤姆·威兹 Tom Waits
       罗茜·佩雷兹 Rosie Perez
       丹尼·格洛弗 Danny Glover
       罗伯特·菲茨杰拉德·迪格斯 RZA
       伊基·波普 Iggy Pop
       罗莎尔·卡农 Rosal Colon
       萨拉·戴维 Sara Driver


标  签 丧尸 | 美国 | 吉姆·贾木许 | 喜剧 | 恐怖 | 2019 | 丧尸片 | 蒂尔达·斯文顿

简  介  

  电影故事发生在寂静的小镇森特维尔,有些事情不太对劲。月亮又大又低地挂在天空中,白天的时间变得不可预测,动物开始表现出不寻常的行为。没人知道原因。新闻报道是可怕的,科学家们对此感到担忧。但没有人预见到,人们很快就会迎来最奇怪、最危险的后果:死人不会死——他们从坟墓里爬出来,野蛮地攻击活人,并大肆享用——镇上的居民必须为生存而战。

获奖情况  

  第72届戛纳电影节(2019)
  主竞赛单元 金棕榈奖(提名) 吉姆·贾木许
  1. Video
  2. ID                                       : 1
  3. Format                                   : HEVC
  4. Format/Info                              : High Efficiency Video Coding
  5. Format profile                           : Main <a href="/cdn-cgi/l/email-protection" class="__cf_email__" data-cfemail="ddeced9d91e8">[email protected]</a>@High
  6. Codec ID                                 : V_MPEGH/ISO/HEVC
  7. Duration                                 : 1 h 44 min
  8. Bit rate                                 : 23.6 Mb/s
  9. Width                                    : 3 840 pixels
  10. Height                                   : 2 160 pixels
  11. Display aspect ratio                     : 16:9
  12. Frame rate mode                          : Constant
  13. Frame rate                               : 23.976 (24000/1001) FPS
  14. Color space                              : YUV
  15. Chroma subsampling                       : 4:2:0 (Type 2)
  16. Bit depth                                : 10 bits
  17. Bits/(Pixel*Frame)                       : 0.119
  18. Stream size                              : 17.2 GiB (95%)
  19. Default                                  : Yes
  20. Forced                                   : No
  21. Color range                              : Limited
  22. Color primaries                          : BT.709
  23. Transfer characteristics                 : BT.709
  24. Matrix coefficients                      : BT.709

  25. Audio
  26. ID                                       : 2
  27. Format                                   : E-AC-3
  28. Format/Info                              : Enhanced AC-3
  29. Commercial name                          : Dolby Digital Plus
  30. Codec ID                                 : A_EAC3
  31. Duration                                 : 1 h 44 min
  32. Bit rate mode                            : Constant
  33. Bit rate                                 : 640 kb/s
  34. Channel(s)                               : 6 channels
  35. Channel layout                           : L R C LFE Ls Rs
  36. Sampling rate                            : 48.0 kHz
  37. Frame rate                               : 31.250 FPS (1536 SPF)
  38. Compression mode                         : Lossy
  39. Stream size                              : 478 MiB (3%)
  40. Language                                 : English
  41. Service kind                             : Complete Main
  42. Default                                  : Yes
  43. Forced                                   : No

  44. Text #1
  45. ID                                       : 3
  46. Format                                   : UTF-8
  47. Codec ID                                 : S_TEXT/UTF8
  48. Codec ID/Info                            : UTF-8 Plain Text
  49. Title                                    : English
  50. Language                                 : English
  51. Default                                  : No
  52. Forced                                   : No

  53. Text #2
  54. ID                                       : 4
  55. Format                                   : UTF-8
  56. Codec ID                                 : S_TEXT/UTF8
  57. Codec ID/Info                            : UTF-8 Plain Text
  58. Title                                    : English (SDH)
  59. Language                                 : English
  60. Default                                  : No
  61. Forced                                   : No

  62. Text #3
  63. ID                                       : 5
  64. Format                                   : UTF-8
  65. Codec ID                                 : S_TEXT/UTF8
  66. Codec ID/Info                            : UTF-8 Plain Text
  67. Title                                    : Spanish
  68. Language                                 : Spanish
  69. Default                                  : No
  70. Forced                                   : No
复制代码

df16dd8f342b5.png 丧尸未逝 The.Dead.Dont.Die.2019.2160p.WEB.H265-DEFLATE 18.24GB-3.png






开通VIP免费下载本站所有资源---点这里
新手必看:资源下载、资源播放、字幕使用、等常见问题---点这里
回复

使用道具 举报

发表于 2019-9-4 11:41:28 | 显示全部楼层
楼主发贴辛苦了,谢谢楼主分享!我觉得蓝光电影网是注册对了!
开通VIP免费下载本站所有资源---点这里
新手必看:资源下载、资源播放、字幕使用、等常见问题---点这里
回复 支持 反对

使用道具 举报

发表于 2019-9-4 11:55:47 | 显示全部楼层
这部片子确实够刺激!感谢分享!!!!
开通VIP免费下载本站所有资源---点这里
新手必看:资源下载、资源播放、字幕使用、等常见问题---点这里
回复 支持 反对

使用道具 举报

 成长值: 760

发表于 2019-9-4 12:54:32 | 显示全部楼层

这东西我收了!谢谢楼主!
开通VIP免费下载本站所有资源---点这里
新手必看:资源下载、资源播放、字幕使用、等常见问题---点这里
回复 支持 反对

使用道具 举报

发表于 2019-9-4 14:12:50 | 显示全部楼层
楼主发贴辛苦了,谢谢楼主分享!我觉得蓝光电影网是注册对了!
开通VIP免费下载本站所有资源---点这里
新手必看:资源下载、资源播放、字幕使用、等常见问题---点这里
回复 支持 反对

使用道具 举报

发表于 2019-9-4 14:32:18 | 显示全部楼层

这东西我收了!谢谢楼主!蓝光电影网真好!
开通VIP免费下载本站所有资源---点这里
新手必看:资源下载、资源播放、字幕使用、等常见问题---点这里
回复 支持 反对

使用道具 举报

发表于 2019-9-4 15:41:19 | 显示全部楼层
楼主发贴辛苦了,谢谢楼主分享!我觉得蓝光电影网是注册对了!
开通VIP免费下载本站所有资源---点这里
新手必看:资源下载、资源播放、字幕使用、等常见问题---点这里
回复 支持 反对

使用道具 举报

发表于 2019-9-4 21:31:54 | 显示全部楼层

既然你诚信诚意的推荐了,那我就勉为其难的看看吧!蓝光电影网不走平凡路。
开通VIP免费下载本站所有资源---点这里
新手必看:资源下载、资源播放、字幕使用、等常见问题---点这里
回复 支持 反对

使用道具 举报

发表于 2019-9-4 22:20:38 | 显示全部楼层

这部片子确实够刺激!感谢分享!
开通VIP免费下载本站所有资源---点这里
新手必看:资源下载、资源播放、字幕使用、等常见问题---点这里
回复 支持 反对

使用道具 举报

 成长值: 2060

发表于 2019-9-5 11:59:07 | 显示全部楼层
谢谢楼主分享新资源
开通VIP免费下载本站所有资源---点这里
新手必看:资源下载、资源播放、字幕使用、等常见问题---点这里
回复 支持 反对

使用道具 举报

懒得打字嘛,点击右侧快捷回复 【右侧内容,后台自定义】
您需要登录后才可以回帖 登录 | 立即加入

本版积分规则

现在加入蓝光电影网,注册一个账号

QQ| 手机版|小黑屋| 蓝光电影网 |网站地图

Copyright © 2015-2019 Comsenz Inc.  Template by 蓝光电影网 All Rights Reserved.

Powered by 蓝光电影网 X3.4

特别声明:本站所有资源均由网上收集而来,版权归原影音公司所有,如果侵犯了你的权益,请通知我们,我们会及时删除侵权内容.

快速回复 返回顶部 返回列表