找回密码

蓝光电影网

查看: 396|回复: 9

[8bit.SDR] 疾速备战 John.Wick.Chapter.3.Parabellum.2019.2160p.BluRay.x264.8bit.SDR.DTS-HD.MA.TrueHD.7.1.Atmos-SWTYBLZ 46.77GB

[复制链接]

 成长值: 1345

发表于 2019-9-3 20:25:43 | 显示全部楼层 |阅读模式
疾速备战 John.Wick.Chapter.3.Parabellum.2019.2160p.BluRay.x264.8bit.SDR.DTS-HD.MA.TrueHD.7.1.Atmos-SWTYBLZ 46.77GB-1.png

译  名 疾速备战 / Alpha Cop / John Wick 3 / John Wick 3: Parabellum / John Wick: Chapter 3 / 捍卫任务3:全面开战(台) / 杀神John Wick 3(港) / 极速追杀:第三章 / 疾速追杀3 / 疾速逃亡 / 约翰·威克3 / 还我狗命3(豆友译名)
片  名 John Wick: Chapter 3 - Parabellum
年  代 2019
产  地 美国
类  别 动作 / 惊悚 / 犯罪
语  言 英语 / 俄语 / 日语 / 意大利语 / 阿拉伯语
上映日期 2019-05-17(美国)
IMDb评分  7.8/10 from 130864 users
IMDb链接  http://www.imdb.com/title/tt6146586
豆瓣评分 8.0/10 from 49459 users
豆瓣链接 https://movie.douban.com/subject/26909790/
片  长 131分钟
导  演 查德·斯塔赫斯基 Chad Stahelski
编  剧 德里克·科尔斯塔 Derek Kolstad / 谢伊·哈滕  Shay Hatten / 克里斯·柯林斯 Chris Collins / 马克·艾布拉姆斯 Marc Abrams
主  演 基努·里维斯 Keanu Reeves
       哈莉·贝瑞 Halle Berry
       劳伦斯·菲什伯恩 Laurence Fishburne
       安杰丽卡·休斯顿 Anjelica Huston
       伊恩·麦柯肖恩 Ian McShane
       马克·达卡斯考斯 Mark Dacascos
       艾莎·凯特·狄龙 Asia Kate Dillon
       兰斯·莱迪克 Lance Reddick
       萨伊德·塔格马奥 Sa?d Taghmaoui
       杰罗姆·弗林 Jerome Flynn
       杰森·曼兹沃克斯 Jason Mantzoukas
       托拜厄斯·西格尔 Tobias Segal
       博班·马里亚诺维奇 Boban Marjanovic
       罗宾·泰勒 Robin Lord Taylor
       罗比·德拉费勒 Robbie DeRaffele
       费斯·洛根 Faith Logan
       雅彦·鲁伊安 Yayan Ruhian
       兰德尔·杜克·金 Randall Duk Kim
       袁之正 Roger Yuan
       陈虎 Tiger Hu Chen
       安东尼·帕迪利亚 Anthony Padilla
       斯特凡尼娅·马卡洛娃 Stefaniya Makarova
       西尔维奥·西马克 Silvio Simac
       马米·科西科 Marmee Cosico
       罗曼·米蒂齐扬 Roman Mitichyan
       塞塞普·阿里夫·拉赫曼 Cecep Arif Rahman
       安妮·比萨比亚 Annie Pisapia
       约翰·盖蒂尔 John Gettier


标  签 动作 | 暴力美学 | 暴力 | 美国 | 犯罪 | 肾上腺素 | 2019 | 杀手

简  介  

  约翰·威克经历了前两次的追杀、特攻之后,由于执意破坏酒店规矩,因而遭到悬赏通缉,全球杀手闻风而至、一路追杀。这次他又将如何杀出重围,终结这场逃亡之旅。
  1. Video
  2. ID                                       : 1
  3. Format                                   : AVC
  4. Format/Info                              : Advanced Video Codec
  5. Format profile                           : <a href="/cdn-cgi/l/email-protection" class="__cf_email__" data-cfemail="f6be9f919eb6bac3d8c7">[email protected]</a>
  6. Format settings                          : CABAC / 5 Ref Frames
  7. Format settings, CABAC                   : Yes
  8. Format settings, Reference frames        : 5 frames
  9. Codec ID                                 : V_MPEG4/ISO/AVC
  10. Duration                                 : 2 h 10 min
  11. Bit rate                                 : 41.8 Mb/s
  12. Width                                    : 3 840 pixels
  13. Height                                   : 1 600 pixels
  14. Display aspect ratio                     : 2.40:1
  15. Frame rate mode                          : Constant
  16. Frame rate                               : 23.976 (24000/1001) FPS
  17. Color space                              : YUV
  18. Chroma subsampling                       : 4:2:0
  19. Bit depth                                : 8 bits
  20. Scan type                                : Progressive
  21. Bits/(Pixel*Frame)                       : 0.284
  22. Stream size                              : 38.2 GiB (82%)
  23. Title                                    : John.Wick.Chapter.3.Parabellum.2019.2160p.BluRay.x264.8bit.SDR.DTS-HD.MA.TrueHD.7.1.Atmos-SWTYBLZ
  24. Writing library                          : x264 core 157 r2935 545de2f
  25. Encoding settings                        : cabac=1 / ref=5 / deblock=1:-1:-1 / analyse=0x3:0x113 / me=umh / subme=10 / psy=1 / psy_rd=1.00:0.15 / mixed_ref=1 / me_range=48 / chroma_me=1 / trellis=2 / 8x8dct=1 / cqm=0 / deadzone=21,11 / fast_pskip=1 / chroma_qp_offset=-3 / threads=48 / lookahead_threads=4 / sliced_threads=0 / nr=0 / decimate=0 / interlaced=0 / bluray_compat=0 / constrained_intra=0 / bframes=3 / b_pyramid=2 / b_adapt=2 / b_bias=0 / direct=3 / weightb=1 / open_gop=0 / weightp=2 / keyint=250 / keyint_min=23 / scenecut=40 / intra_refresh=0 / rc_lookahead=50 / rc=crf / mbtree=1 / crf=18.0 / qcomp=0.60 / qpmin=0 / qpmax=69 / qpstep=4 / ip_ratio=1.40 / aq=1:1.00
  26. Default                                  : Yes
  27. Forced                                   : No

  28. Audio #1
  29. ID                                       : 2
  30. Format                                   : MLP FBA 16-ch
  31. Format/Info                              : Meridian Lossless Packing FBA with 16-channel presentation
  32. Commercial name                          : Dolby TrueHD with Dolby Atmos
  33. Codec ID                                 : A_TRUEHD
  34. Duration                                 : 2 h 10 min
  35. Bit rate mode                            : Variable
  36. Bit rate                                 : 4 012 kb/s
  37. Maximum bit rate                         : 6 327 kb/s
  38. Channel(s)                               : 8 channels
  39. Channel layout                           : L R C LFE Ls Rs Lb Rb
  40. Sampling rate                            : 48.0 kHz
  41. Frame rate                               : 1 200.000 FPS (40 SPF)
  42. Compression mode                         : Lossless
  43. Stream size                              : 3.66 GiB (8%)
  44. Title                                    : John.Wick.Chapter.3.Parabellum.2019.2160p.BluRay.x264.8bit.SDR.DTS-HD.MA.TrueHD.7.1.Atmos-SWTYBLZ
  45. Language                                 : English
  46. Default                                  : Yes
  47. Forced                                   : No
  48. Number of dynamic objects                : 15
  49. Bed channel count                        : 1 channel
  50. Bed channel configuration                : LFE

  51. Audio #2
  52. ID                                       : 3
  53. Format                                   : DTS XLL
  54. Format/Info                              : Digital Theater Systems
  55. Commercial name                          : DTS-HD Master Audio
  56. Codec ID                                 : A_DTS
  57. Duration                                 : 2 h 10 min
  58. Bit rate mode                            : Variable
  59. Bit rate                                 : 4 439 kb/s
  60. Channel(s)                               : 8 channels
  61. Channel layout                           : C L R LFE Lb Rb Lss Rss
  62. Sampling rate                            : 48.0 kHz
  63. Frame rate                               : 93.750 FPS (512 SPF)
  64. Bit depth                                : 24 bits
  65. Compression mode                         : Lossless
  66. Stream size                              : 4.05 GiB (9%)
  67. Title                                    : John.Wick.Chapter.3.Parabellum.2019.2160p.BluRay.x264.8bit.SDR.DTS-HD.MA.TrueHD.7.1.Atmos-SWTYBLZ
  68. Language                                 : English
  69. Default                                  : No
  70. Forced                                   : No

  71. Audio #3
  72. ID                                       : 4
  73. Format                                   : AC-3
  74. Format/Info                              : Audio Coding 3
  75. Commercial name                          : Dolby Digital
  76. Codec ID                                 : A_AC3
  77. Duration                                 : 2 h 10 min
  78. Bit rate mode                            : Constant
  79. Bit rate                                 : 640 kb/s
  80. Channel(s)                               : 6 channels
  81. Channel layout                           : L R C LFE Ls Rs
  82. Sampling rate                            : 48.0 kHz
  83. Frame rate                               : 31.250 FPS (1536 SPF)
  84. Bit depth                                : 16 bits
  85. Compression mode                         : Lossy
  86. Stream size                              : 599 MiB (1%)
  87. Title                                    : John.Wick.Chapter.3.Parabellum.2019.2160p.BluRay.x264.8bit.SDR.DTS-HD.MA.TrueHD.7.1.Atmos-SWTYBLZ
  88. Language                                 : English
  89. Service kind                             : Complete Main
  90. Default                                  : No
  91. Forced                                   : No

  92. Text #1
  93. ID                                       : 5
  94. Format                                   : UTF-8
  95. Codec ID                                 : S_TEXT/UTF8
  96. Codec ID/Info                            : UTF-8 Plain Text
  97. Duration                                 : 1 h 59 min
  98. Bit rate                                 : 24 b/s
  99. Count of elements                        : 683
  100. Stream size                              : 21.1 KiB (0%)
  101. Title                                    : English-SRT
  102. Language                                 : English
  103. Default                                  : Yes
  104. Forced                                   : No

  105. Text #2
  106. ID                                       : 6
  107. Format                                   : PGS
  108. Muxing mode                              : zlib
  109. Codec ID                                 : S_HDMV/PGS
  110. Codec ID/Info                            : Picture based subtitle format used on BDs/HD-DVDs
  111. Duration                                 : 1 h 59 min
  112. Bit rate                                 : 17.0 kb/s
  113. Count of elements                        : 1370
  114. Stream size                              : 14.6 MiB (0%)
  115. Title                                    : English-PGS
  116. Language                                 : English
  117. Default                                  : No
  118. Forced                                   : No

  119. Text #3
  120. ID                                       : 7
  121. Format                                   : PGS
  122. Muxing mode                              : zlib
  123. Codec ID                                 : S_HDMV/PGS
  124. Codec ID/Info                            : Picture based subtitle format used on BDs/HD-DVDs
  125. Duration                                 : 2 h 0 min
  126. Bit rate                                 : 22.1 kb/s
  127. Count of elements                        : 2042
  128. Stream size                              : 19.1 MiB (0%)
  129. Title                                    : English-SDH-PGS
  130. Language                                 : English
  131. Default                                  : No
  132. Forced                                   : No

  133. Text #4
  134. ID                                       : 8
  135. Format                                   : PGS
  136. Muxing mode                              : zlib
  137. Codec ID                                 : S_HDMV/PGS
  138. Codec ID/Info                            : Picture based subtitle format used on BDs/HD-DVDs
  139. Duration                                 : 1 h 59 min
  140. Bit rate                                 : 17.2 kb/s
  141. Count of elements                        : 1672
  142. Stream size                              : 14.8 MiB (0%)
  143. Title                                    : French-PGS
  144. Language                                 : French
  145. Default                                  : No
  146. Forced                                   : No

  147. Text #5
  148. ID                                       : 9
  149. Format                                   : PGS
  150. Muxing mode                              : zlib
  151. Codec ID                                 : S_HDMV/PGS
  152. Codec ID/Info                            : Picture based subtitle format used on BDs/HD-DVDs
  153. Duration                                 : 1 h 59 min
  154. Bit rate                                 : 12.7 kb/s
  155. Count of elements                        : 1254
  156. Stream size                              : 10.9 MiB (0%)
  157. Title                                    : Italian-PGS
  158. Language                                 : Italian
  159. Default                                  : No
  160. Forced                                   : No

  161. Text #6
  162. ID                                       : 10
  163. Format                                   : PGS
  164. Muxing mode                              : zlib
  165. Codec ID                                 : S_HDMV/PGS
  166. Codec ID/Info                            : Picture based subtitle format used on BDs/HD-DVDs
  167. Duration                                 : 2 h 0 min
  168. Bit rate                                 : 17.5 kb/s
  169. Count of elements                        : 1538
  170. Stream size                              : 15.1 MiB (0%)
  171. Title                                    : Spanish-PGS
  172. Language                                 : Spanish
  173. Default                                  : No
  174. Forced                                   : No

  175. Menu
  176. 00:00:00.000                             : en:Chapter 01
  177. 00:08:46.860                             : en:Chapter 02
  178. 00:14:06.763                             : en:Chapter 03
  179. 00:22:40.401                             : en:Chapter 04
  180. 00:31:26.301                             : en:Chapter 05
  181. 00:37:51.311                             : en:Chapter 06
  182. 00:47:43.319                             : en:Chapter 07
  183. 00:57:09.176                             : en:Chapter 08
  184. 01:02:56.439                             : en:Chapter 09
  185. 01:14:27.672                             : en:Chapter 10
  186. 01:20:36.665                             : en:Chapter 11
  187. 01:28:48.365                             : en:Chapter 12
  188. 01:33:51.793                             : en:Chapter 13
  189. 01:41:31.794                             : en:Chapter 14
  190. 01:53:44.651                             : en:Chapter 15
  191. 01:59:51.434                             : en:Chapter 16
复制代码

疾速备战 John.Wick.Chapter.3.Parabellum.2019.2160p.BluRay.x264.8bit.SDR.DTS-HD.MA.TrueHD.7.1.Atmos-SWTYBLZ 46.77GB-2.png 疾速备战 John.Wick.Chapter.3.Parabellum.2019.2160p.BluRay.x264.8bit.SDR.DTS-HD.MA.TrueHD.7.1.Atmos-SWTYBLZ 46.77GB-3.png 疾速备战 John.Wick.Chapter.3.Parabellum.2019.2160p.BluRay.x264.8bit.SDR.DTS-HD.MA.TrueHD.7.1.Atmos-SWTYBLZ 46.77GB-4.png 疾速备战 John.Wick.Chapter.3.Parabellum.2019.2160p.BluRay.x264.8bit.SDR.DTS-HD.MA.TrueHD.7.1.Atmos-SWTYBLZ 46.77GB-5.png 疾速备战 John.Wick.Chapter.3.Parabellum.2019.2160p.BluRay.x264.8bit.SDR.DTS-HD.MA.TrueHD.7.1.Atmos-SWTYBLZ 46.77GB-6.png 疾速备战 John.Wick.Chapter.3.Parabellum.2019.2160p.BluRay.x264.8bit.SDR.DTS-HD.MA.TrueHD.7.1.Atmos-SWTYBLZ 46.77GB-7.png 疾速备战 John.Wick.Chapter.3.Parabellum.2019.2160p.BluRay.x264.8bit.SDR.DTS-HD.MA.TrueHD.7.1.Atmos-SWTYBLZ 46.77GB-8.png






开通VIP免费下载本站所有资源---点这里
新手必看:资源下载、资源播放、字幕使用、等常见问题---点这里
回复

使用道具 举报

发表于 2019-9-3 20:53:19 | 显示全部楼层

这个帖子不回对不起自己!我想我是一天也不能离开蓝光电影网
开通VIP免费下载本站所有资源---点这里
新手必看:资源下载、资源播放、字幕使用、等常见问题---点这里
回复 支持 反对

使用道具 举报

发表于 2019-9-3 21:57:37 | 显示全部楼层
很好的经典。
开通VIP免费下载本站所有资源---点这里
新手必看:资源下载、资源播放、字幕使用、等常见问题---点这里
回复 支持 反对

使用道具 举报

发表于 2019-9-3 22:08:08 | 显示全部楼层
Thanks for you LZ
开通VIP免费下载本站所有资源---点这里
新手必看:资源下载、资源播放、字幕使用、等常见问题---点这里
回复 支持 反对

使用道具 举报

发表于 2019-9-3 22:11:45 | 显示全部楼层
楼主发贴辛苦了,谢谢楼主分享!我觉得蓝光电影网是注册对了!
开通VIP免费下载本站所有资源---点这里
新手必看:资源下载、资源播放、字幕使用、等常见问题---点这里
回复 支持 反对

使用道具 举报

发表于 2019-9-4 07:42:57 | 显示全部楼层

我看不错噢 谢谢楼主!蓝光电影网越来越好!
开通VIP免费下载本站所有资源---点这里
新手必看:资源下载、资源播放、字幕使用、等常见问题---点这里
回复 支持 反对

使用道具 举报

发表于 2019-9-4 09:41:59 | 显示全部楼层
谢谢楼主,值得收藏的一部电影
开通VIP免费下载本站所有资源---点这里
新手必看:资源下载、资源播放、字幕使用、等常见问题---点这里
回复 支持 反对

使用道具 举报

发表于 2019-9-4 10:22:19 | 显示全部楼层
谢谢楼主分享!
开通VIP免费下载本站所有资源---点这里
新手必看:资源下载、资源播放、字幕使用、等常见问题---点这里
回复 支持 反对

使用道具 举报

发表于 2019-9-4 13:46:51 | 显示全部楼层
不愧是最个性大明星的动作片,毫无拖泥带水!
开通VIP免费下载本站所有资源---点这里
新手必看:资源下载、资源播放、字幕使用、等常见问题---点这里
回复 支持 反对

使用道具 举报

发表于 2019-9-5 18:08:11 | 显示全部楼层

既然你诚信诚意的推荐了,那我就勉为其难的看看吧!蓝光电影网不走平凡路。
开通VIP免费下载本站所有资源---点这里
新手必看:资源下载、资源播放、字幕使用、等常见问题---点这里
回复 支持 反对

使用道具 举报

懒得打字嘛,点击右侧快捷回复 【右侧内容,后台自定义】
您需要登录后才可以回帖 登录 | 立即加入

本版积分规则

现在加入蓝光电影网,注册一个账号

QQ| 手机版|小黑屋| 蓝光电影网 |网站地图

Copyright © 2015-2019 Comsenz Inc.  Template by 蓝光电影网 All Rights Reserved.

Powered by 蓝光电影网 X3.4

特别声明:本站所有资源均由网上收集而来,版权归原影音公司所有,如果侵犯了你的权益,请通知我们,我们会及时删除侵权内容.

快速回复 返回顶部 返回列表