找回密码

蓝光电影网

查看: 280|回复: 5

[10bit.HDR] 疾速备战 John.Wick.Chapter.3.Parabellum.2019.2160p.BluRay.x265.10bit.HDR.DTS-HD.MA.TrueHD.7.1.Atmos-SWTYBLZ 25.02GB

[复制链接]

 成长值: 1345

发表于 2019-9-3 20:19:37 | 显示全部楼层 |阅读模式
疾速备战 John.Wick.Chapter.3.Parabellum.2019.2160p.BluRay.x265.10bit.HDR.DTS-HD.MA.TrueHD.7.1.Atmos-SWTYBLZ 25.02GB-1.png

译  名 疾速备战 / Alpha Cop / John Wick 3 / John Wick 3: Parabellum / John Wick: Chapter 3 / 捍卫任务3:全面开战(台) / 杀神John Wick 3(港) / 极速追杀:第三章 / 疾速追杀3 / 疾速逃亡 / 约翰·威克3 / 还我狗命3(豆友译名)
片  名 John Wick: Chapter 3 - Parabellum
年  代 2019
产  地 美国
类  别 动作 / 惊悚 / 犯罪
语  言 英语 / 俄语 / 日语 / 意大利语 / 阿拉伯语
上映日期 2019-05-17(美国)
IMDb评分  7.8/10 from 130864 users
IMDb链接  http://www.imdb.com/title/tt6146586
豆瓣评分 8.0/10 from 49459 users
豆瓣链接 https://movie.douban.com/subject/26909790/
片  长 131分钟
导  演 查德·斯塔赫斯基 Chad Stahelski
编  剧 德里克·科尔斯塔 Derek Kolstad / 谢伊·哈滕  Shay Hatten / 克里斯·柯林斯 Chris Collins / 马克·艾布拉姆斯 Marc Abrams
主  演 基努·里维斯 Keanu Reeves
       哈莉·贝瑞 Halle Berry
       劳伦斯·菲什伯恩 Laurence Fishburne
       安杰丽卡·休斯顿 Anjelica Huston
       伊恩·麦柯肖恩 Ian McShane
       马克·达卡斯考斯 Mark Dacascos
       艾莎·凯特·狄龙 Asia Kate Dillon
       兰斯·莱迪克 Lance Reddick
       萨伊德·塔格马奥 Sa?d Taghmaoui
       杰罗姆·弗林 Jerome Flynn
       杰森·曼兹沃克斯 Jason Mantzoukas
       托拜厄斯·西格尔 Tobias Segal
       博班·马里亚诺维奇 Boban Marjanovic
       罗宾·泰勒 Robin Lord Taylor
       罗比·德拉费勒 Robbie DeRaffele
       费斯·洛根 Faith Logan
       雅彦·鲁伊安 Yayan Ruhian
       兰德尔·杜克·金 Randall Duk Kim
       袁之正 Roger Yuan
       陈虎 Tiger Hu Chen
       安东尼·帕迪利亚 Anthony Padilla
       斯特凡尼娅·马卡洛娃 Stefaniya Makarova
       西尔维奥·西马克 Silvio Simac
       马米·科西科 Marmee Cosico
       罗曼·米蒂齐扬 Roman Mitichyan
       塞塞普·阿里夫·拉赫曼 Cecep Arif Rahman
       安妮·比萨比亚 Annie Pisapia
       约翰·盖蒂尔 John Gettier


标  签 动作 | 暴力美学 | 暴力 | 美国 | 犯罪 | 肾上腺素 | 2019 | 杀手

简  介  

  约翰·威克经历了前两次的追杀、特攻之后,由于执意破坏酒店规矩,因而遭到悬赏通缉,全球杀手闻风而至、一路追杀。这次他又将如何杀出重围,终结这场逃亡之旅。

  1. Video
  2. ID                                       : 1
  3. Format                                   : HEVC
  4. Format/Info                              : High Efficiency Video Coding
  5. Format profile                           : Main 10@L5.1@High
  6. HDR format                               : SMPTE ST 2086, HDR10 compatible
  7. Codec ID                                 : V_MPEGH/ISO/HEVC
  8. Duration                                 : 2 h 10 min
  9. Bit rate                                 : 18.1 Mb/s
  10. Width                                    : 3 840 pixels
  11. Height                                   : 1 600 pixels
  12. Display aspect ratio                     : 2.40:1
  13. Frame rate mode                          : Constant
  14. Frame rate                               : 23.976 (24000/1001) FPS
  15. Color space                              : YUV
  16. Chroma subsampling                       : 4:2:0 (Type 2)
  17. Bit depth                                : 10 bits
  18. Bits/(Pixel*Frame)                       : 0.123
  19. Stream size                              : 16.5 GiB (66%)
  20. Title                                    : John.Wick.Chapter.3.Parabellum.2019.2160p.BluRay.x265.10bit.HDR.DTS-HD.MA.TrueHD.7.1.Atmos-SWTYBLZ
  21. Writing library                          : x265 3.0_Au+10-74a8672ea4f7:[Windows][GCC 8.2.1][64 bit] 10bit
  22. Encoding settings                        : cpuid=1111039 / frame-threads=16 / numa-pools=24,24,24,24 / wpp / no-pmode / no-pme / no-psnr / no-ssim / log-level=2 / input-csp=1 / input-res=3840x1600 / interlace=0 / total-frames=0 / level-idc=51 / high-tier=1 / uhd-bd=0 / ref=3 / no-allow-non-conformance / repeat-headers / annexb / aud / hrd / info / hash=0 / no-temporal-layers / no-open-gop / min-keyint=1 / keyint=24 / gop-lookahead=0 / bframes=4 / b-adapt=2 / b-pyramid / bframe-bias=0 / rc-lookahead=25 / lookahead-slices=4 / scenecut=40 / radl=0 / no-splice / no-intra-refresh / ctu=64 / min-cu-size=8 / no-rect / no-amp / max-tu-size=32 / tu-inter-depth=1 / tu-intra-depth=1 / limit-tu=0 / rdoq-level=0 / dynamic-rd=0.00 / no-ssim-rd / signhide / no-tskip / nr-intra=0 / nr-inter=0 / no-constrained-intra / strong-intra-smoothing / max-merge=2 / limit-refs=3 / no-limit-modes / me=1 / subme=2 / merange=57 / temporal-mvp / weightp / no-weightb / no-analyze-src-pics / deblock=0:0 / no-sao / no-sao-non-deblock / rd=3 / no-early-skip / rskip / no-fast-intra / no-tskip-fast / no-cu-lossless / no-b-intra / no-splitrd-skip / rdpenalty=0 / psy-rd=2.00 / psy-rdoq=0.00 / no-rd-refine / no-lossless / cbqpoffs=0 / crqpoffs=0 / rc=crf / crf=16.0 / qcomp=0.60 / qpstep=4 / stats-write=0 / stats-read=0 / vbv-maxrate=160000 / vbv-bufsize=160000 / vbv-init=0.9 / crf-max=0.0 / crf-min=0.0 / ipratio=1.40 / pbratio=1.30 / aq-mode=1 / aq-strength=1.00 / cutree / zone-count=0 / no-strict-cbr / qg-size=32 / no-rc-grain / qpmax=69 / qpmin=0 / no-const-vbv / sar=1 / overscan=0 / videoformat=5 / range=0 / colorprim=9 / transfer=16 / colormatrix=9 / chromaloc=1 / chromaloc-top=2 / chromaloc-bottom=2 / display-window=0 / master-display=G(13250,34500)B(7500,3000)R(34000,16000)WP(15635,16450)L(10000000,10) / max-cll=1000,358 / min-luma=0 / max-luma=1023 / log2-max-poc-lsb=8 / vui-timing-info / vui-hrd-info / slices=1 / opt-qp-pps / opt-ref-list-length-pps / no-multi-pass-opt-rps / scenecut-bias=0.05 / no-opt-cu-delta-qp / no-aq-motion / hdr / hdr-opt / no-dhdr10-opt / no-idr-recovery-sei / analysis-reuse-level=5 / scale-factor=0 / refine-intra=0 / refine-inter=0 / refine-mv=0 / refine-ctu-distortion=0 / no-limit-sao / ctu-info=0 / no-lowpass-dct / refine-analysis-type=0 / copy-pic=1 / max-ausize-factor=1.0 / no-dynamic-refine / no-single-sei / no-hevc-aq / no-svt / qp-adaptation-range=1.00
  23. Default                                  : Yes
  24. Forced                                   : No
  25. Color range                              : Limited
  26. Color primaries                          : BT.2020
  27. Transfer characteristics                 : PQ
  28. Matrix coefficients                      : BT.2020 non-constant
  29. Mastering display color primaries        : Display P3
  30. Mastering display luminance              : min: 0.0010 cd/m2, max: 1000 cd/m2
  31. Maximum Content Light Level              : 1000 cd/m2
  32. Maximum Frame-Average Light Level        : 358 cd/m2

  33. Audio #1
  34. ID                                       : 2
  35. Format                                   : MLP FBA 16-ch
  36. Format/Info                              : Meridian Lossless Packing FBA with 16-channel presentation
  37. Commercial name                          : Dolby TrueHD with Dolby Atmos
  38. Codec ID                                 : A_TRUEHD
  39. Duration                                 : 2 h 10 min
  40. Bit rate mode                            : Variable
  41. Bit rate                                 : 4 012 kb/s
  42. Maximum bit rate                         : 6 327 kb/s
  43. Channel(s)                               : 8 channels
  44. Channel layout                           : L R C LFE Ls Rs Lb Rb
  45. Sampling rate                            : 48.0 kHz
  46. Frame rate                               : 1 200.000 FPS (40 SPF)
  47. Compression mode                         : Lossless
  48. Stream size                              : 3.66 GiB (15%)
  49. Title                                    : John.Wick.Chapter.3.Parabellum.2019.2160p.BluRay.x265.10bit.HDR.DTS-HD.MA.TrueHD.7.1.Atmos-SWTYBLZ
  50. Language                                 : English
  51. Default                                  : Yes
  52. Forced                                   : No
  53. Number of dynamic objects                : 15
  54. Bed channel count                        : 1 channel
  55. Bed channel configuration                : LFE

  56. Audio #2
  57. ID                                       : 3
  58. Format                                   : DTS XLL
  59. Format/Info                              : Digital Theater Systems
  60. Commercial name                          : DTS-HD Master Audio
  61. Codec ID                                 : A_DTS
  62. Duration                                 : 2 h 10 min
  63. Bit rate mode                            : Variable
  64. Bit rate                                 : 4 439 kb/s
  65. Channel(s)                               : 8 channels
  66. Channel layout                           : C L R LFE Lb Rb Lss Rss
  67. Sampling rate                            : 48.0 kHz
  68. Frame rate                               : 93.750 FPS (512 SPF)
  69. Bit depth                                : 24 bits
  70. Compression mode                         : Lossless
  71. Stream size                              : 4.05 GiB (16%)
  72. Title                                    : John.Wick.Chapter.3.Parabellum.2019.2160p.BluRay.x265.10bit.HDR.DTS-HD.MA.TrueHD.7.1.Atmos-SWTYBLZ
  73. Language                                 : English
  74. Default                                  : No
  75. Forced                                   : No

  76. Audio #3
  77. ID                                       : 4
  78. Format                                   : AC-3
  79. Format/Info                              : Audio Coding 3
  80. Commercial name                          : Dolby Digital
  81. Codec ID                                 : A_AC3
  82. Duration                                 : 2 h 10 min
  83. Bit rate mode                            : Constant
  84. Bit rate                                 : 640 kb/s
  85. Channel(s)                               : 6 channels
  86. Channel layout                           : L R C LFE Ls Rs
  87. Sampling rate                            : 48.0 kHz
  88. Frame rate                               : 31.250 FPS (1536 SPF)
  89. Bit depth                                : 16 bits
  90. Compression mode                         : Lossy
  91. Stream size                              : 599 MiB (2%)
  92. Title                                    : John.Wick.Chapter.3.Parabellum.2019.2160p.BluRay.x265.10bit.HDR.DTS-HD.MA.TrueHD.7.1.Atmos-SWTYBLZ
  93. Language                                 : English
  94. Service kind                             : Complete Main
  95. Default                                  : No
  96. Forced                                   : No

  97. Text #1
  98. ID                                       : 5
  99. Format                                   : UTF-8
  100. Codec ID                                 : S_TEXT/UTF8
  101. Codec ID/Info                            : UTF-8 Plain Text
  102. Duration                                 : 1 h 59 min
  103. Bit rate                                 : 24 b/s
  104. Count of elements                        : 683
  105. Stream size                              : 21.1 KiB (0%)
  106. Title                                    : English-SRT
  107. Language                                 : English
  108. Default                                  : Yes
  109. Forced                                   : No

  110. Text #2
  111. ID                                       : 6
  112. Format                                   : PGS
  113. Muxing mode                              : zlib
  114. Codec ID                                 : S_HDMV/PGS
  115. Codec ID/Info                            : Picture based subtitle format used on BDs/HD-DVDs
  116. Duration                                 : 1 h 59 min
  117. Bit rate                                 : 17.0 kb/s
  118. Count of elements                        : 1370
  119. Stream size                              : 14.6 MiB (0%)
  120. Title                                    : English-PGS
  121. Language                                 : English
  122. Default                                  : No
  123. Forced                                   : No

  124. Text #3
  125. ID                                       : 7
  126. Format                                   : PGS
  127. Muxing mode                              : zlib
  128. Codec ID                                 : S_HDMV/PGS
  129. Codec ID/Info                            : Picture based subtitle format used on BDs/HD-DVDs
  130. Duration                                 : 2 h 0 min
  131. Bit rate                                 : 22.1 kb/s
  132. Count of elements                        : 2042
  133. Stream size                              : 19.1 MiB (0%)
  134. Title                                    : English-SDH-PGS
  135. Language                                 : English
  136. Default                                  : No
  137. Forced                                   : No

  138. Text #4
  139. ID                                       : 8
  140. Format                                   : PGS
  141. Muxing mode                              : zlib
  142. Codec ID                                 : S_HDMV/PGS
  143. Codec ID/Info                            : Picture based subtitle format used on BDs/HD-DVDs
  144. Duration                                 : 1 h 59 min
  145. Bit rate                                 : 17.2 kb/s
  146. Count of elements                        : 1672
  147. Stream size                              : 14.8 MiB (0%)
  148. Title                                    : French-PGS
  149. Language                                 : French
  150. Default                                  : No
  151. Forced                                   : No

  152. Text #5
  153. ID                                       : 9
  154. Format                                   : PGS
  155. Muxing mode                              : zlib
  156. Codec ID                                 : S_HDMV/PGS
  157. Codec ID/Info                            : Picture based subtitle format used on BDs/HD-DVDs
  158. Duration                                 : 1 h 59 min
  159. Bit rate                                 : 12.7 kb/s
  160. Count of elements                        : 1254
  161. Stream size                              : 10.9 MiB (0%)
  162. Title                                    : Italian-PGS
  163. Language                                 : Italian
  164. Default                                  : No
  165. Forced                                   : No

  166. Text #6
  167. ID                                       : 10
  168. Format                                   : PGS
  169. Muxing mode                              : zlib
  170. Codec ID                                 : S_HDMV/PGS
  171. Codec ID/Info                            : Picture based subtitle format used on BDs/HD-DVDs
  172. Duration                                 : 2 h 0 min
  173. Bit rate                                 : 17.5 kb/s
  174. Count of elements                        : 1538
  175. Stream size                              : 15.1 MiB (0%)
  176. Title                                    : Spanish-PGS
  177. Language                                 : Spanish
  178. Default                                  : No
  179. Forced                                   : No

  180. Menu
  181. 00:00:00.000                             : en:Chapter 01
  182. 00:08:46.860                             : en:Chapter 02
  183. 00:14:06.763                             : en:Chapter 03
  184. 00:22:40.401                             : en:Chapter 04
  185. 00:31:26.301                             : en:Chapter 05
  186. 00:37:51.311                             : en:Chapter 06
  187. 00:47:43.319                             : en:Chapter 07
  188. 00:57:09.176                             : en:Chapter 08
  189. 01:02:56.439                             : en:Chapter 09
  190. 01:14:27.672                             : en:Chapter 10
  191. 01:20:36.665                             : en:Chapter 11
  192. 01:28:48.365                             : en:Chapter 12
  193. 01:33:51.793                             : en:Chapter 13
  194. 01:41:31.794                             : en:Chapter 14
  195. 01:53:44.651                             : en:Chapter 15
  196. 01:59:51.434                             : en:Chapter 16
复制代码






开通VIP免费下载本站所有资源---点这里
新手必看:资源下载、资源播放、字幕使用、等常见问题---点这里
回复

使用道具 举报

发表于 2019-9-3 20:51:48 | 显示全部楼层

感谢楼主的无私分享!要想蓝光电影网好 就靠你我他
开通VIP免费下载本站所有资源---点这里
新手必看:资源下载、资源播放、字幕使用、等常见问题---点这里
回复 支持 反对

使用道具 举报

发表于 2019-9-4 12:47:34 | 显示全部楼层

感谢楼主的无私分享!要想蓝光电影网好 就靠你我他
开通VIP免费下载本站所有资源---点这里
新手必看:资源下载、资源播放、字幕使用、等常见问题---点这里
回复 支持 反对

使用道具 举报

发表于 2019-9-4 20:28:30 | 显示全部楼层

既然你诚信诚意的推荐了,那我就勉为其难的看看吧!蓝光电影网不走平凡路。
开通VIP免费下载本站所有资源---点这里
新手必看:资源下载、资源播放、字幕使用、等常见问题---点这里
回复 支持 反对

使用道具 举报

发表于 2019-9-4 22:11:36 | 显示全部楼层
谢谢楼主分享好电影!
开通VIP免费下载本站所有资源---点这里
新手必看:资源下载、资源播放、字幕使用、等常见问题---点这里
回复 支持 反对

使用道具 举报

发表于 2019-9-5 22:17:33 | 显示全部楼层
谢谢楼主分享
开通VIP免费下载本站所有资源---点这里
新手必看:资源下载、资源播放、字幕使用、等常见问题---点这里
回复 支持 反对

使用道具 举报

懒得打字嘛,点击右侧快捷回复 【右侧内容,后台自定义】
您需要登录后才可以回帖 登录 | 立即加入

本版积分规则

现在加入蓝光电影网,注册一个账号

QQ| 手机版|小黑屋| 蓝光电影网 |网站地图

Copyright © 2015-2019 Comsenz Inc.  Template by 蓝光电影网 All Rights Reserved.

Powered by 蓝光电影网 X3.4

特别声明:本站所有资源均由网上收集而来,版权归原影音公司所有,如果侵犯了你的权益,请通知我们,我们会及时删除侵权内容.

快速回复 返回顶部 返回列表