找回密码

蓝光电影网

查看: 529|回复: 13

[8bit.SDR] 伴我同行/与我常在 Stand.by.Me.1986.2160p.BluRay.x264.8bit.SDR.DTS-HD.MA.TrueHD.7.1.Atmos-SWTYBLZ 50.70GB

[复制链接]

 成长值: 1345

发表于 2019-9-1 13:22:14 | 显示全部楼层 |阅读模式
伴我同行/与我常在 Stand.by.Me.1986.2160p.BluRay.x264.8bit.SDR.DTS-HD.MA.TrueHD.7.1.Atmos-SWTYBLZ 50.70GB-1.png

译  名 伴我同行 / 与我常在 / 同仇敌忾 / 站在我这边
片  名 Stand by Me
年  代 1986
产  地 美国
类  别 剧情 / 儿童 / 冒险
语  言 英语
上映日期 1986-08-08(美国)
IMDb评分  8.1/10 from 337546 users
IMDb链接  http://www.imdb.com/title/tt0092005
豆瓣评分 8.9/10 from 70904 users
豆瓣链接 https://movie.douban.com/subject/1292925/
片  长 89分钟
导  演 罗伯·莱纳 Rob Reiner
编  剧 雷纳尔多·吉迪恩 Raynold Gideon / 布鲁斯·A·埃文斯 Bruce A. Evans / 斯蒂芬·金 Stephen King
主  演 瑞凡·菲尼克斯 River Phoenix
       威尔·惠顿 Wil Wheaton
       科里·费尔德曼 Corey Feldman
       杰瑞·奥康奈尔 Jerry O'Connell
       约翰·库萨克 John Cusack
       理查德·德莱弗斯 Richard Dreyfuss
       基弗·萨瑟兰 Kiefer Sutherland


标  签 成长 | 美国 | 青春 | 童年 | 友情 | 1986 | 剧情 | 经典

简  介  

  这是一部关于成长的电影。著名作家戈迪(理查德?德莱福斯 Richard Dreyfuss 饰)回忆起他12岁时的一次冒险活动:当时,年少的戈迪(威尔?惠顿 Wil Wheaton 饰)与他的三个小伙伴克里斯(瑞凡?菲尼克斯 River Phoenix 饰)、泰迪(科里?费尔德曼 Corey Feldman 饰)和维恩为了当一回“英雄”去河的对岸的森林里寻找一具12岁男孩的尸体。
  4个少年家庭各有问题,他们都有自己的心事。在旅程中每个人的性格都被体现得淋漓尽致:四个男孩性格中的软弱和坚强,在闪火车,翻铁门,越森林等一系列的行动中被最大限度的放大;每个人都有自己可望而不可及的梦想……
  1987年金球奖最佳电影、最佳导演提名,1987年奥斯卡奖最佳编剧提名

获奖情况  

  第59届奥斯卡金像奖(1987)
  最佳改编剧本(提名) 布鲁斯·A·埃文斯 / 雷纳尔多·吉迪恩
  1. Video
  2. ID                                       : 1
  3. Format                                   : AVC
  4. Format/Info                              : Advanced Video Codec
  5. Format profile                           : <a href="/cdn-cgi/l/email-protection" class="__cf_email__" data-cfemail="f6be9f919eb6bac3d8c7">[email protected]</a>
  6. Format settings                          : CABAC / 5 Ref Frames
  7. Format settings, CABAC                   : Yes
  8. Format settings, Reference frames        : 5 frames
  9. Codec ID                                 : V_MPEG4/ISO/AVC
  10. Duration                                 : 1 h 28 min
  11. Bit rate                                 : 72.7 Mb/s
  12. Width                                    : 3 840 pixels
  13. Height                                   : 2 076 pixels
  14. Display aspect ratio                     : 1.85:1
  15. Frame rate mode                          : Constant
  16. Frame rate                               : 23.976 (24000/1001) FPS
  17. Color space                              : YUV
  18. Chroma subsampling                       : 4:2:0
  19. Bit depth                                : 8 bits
  20. Scan type                                : Progressive
  21. Bits/(Pixel*Frame)                       : 0.380
  22. Stream size                              : 45.0 GiB (89%)
  23. Title                                    : Stand.by.Me.1986.2160p.BluRay.x264.8bit.SDR.DTS-HD.MA.TrueHD.7.1.Atmos-SWTYBLZ
  24. Writing library                          : x264 core 157 r2935 545de2f
  25. Encoding settings                        : cabac=1 / ref=5 / deblock=1:-1:-1 / analyse=0x3:0x113 / me=umh / subme=10 / psy=1 / psy_rd=1.00:0.15 / mixed_ref=1 / me_range=48 / chroma_me=1 / trellis=2 / 8x8dct=1 / cqm=0 / deadzone=21,11 / fast_pskip=1 / chroma_qp_offset=-3 / threads=48 / lookahead_threads=4 / sliced_threads=0 / nr=0 / decimate=0 / interlaced=0 / bluray_compat=0 / constrained_intra=0 / bframes=3 / b_pyramid=2 / b_adapt=2 / b_bias=0 / direct=3 / weightb=1 / open_gop=0 / weightp=2 / keyint=250 / keyint_min=23 / scenecut=40 / intra_refresh=0 / rc_lookahead=50 / rc=crf / mbtree=1 / crf=21.0 / qcomp=0.60 / qpmin=0 / qpmax=69 / qpstep=4 / ip_ratio=1.40 / aq=1:1.00
  26. Default                                  : Yes
  27. Forced                                   : No

  28. Audio #1
  29. ID                                       : 2
  30. Format                                   : MLP FBA 16-ch
  31. Format/Info                              : Meridian Lossless Packing FBA with 16-channel presentation
  32. Commercial name                          : Dolby TrueHD with Dolby Atmos
  33. Codec ID                                 : A_TRUEHD
  34. Duration                                 : 1 h 28 min
  35. Bit rate mode                            : Variable
  36. Bit rate                                 : 3 121 kb/s
  37. Maximum bit rate                         : 4 866 kb/s
  38. Channel(s)                               : 8 channels
  39. Channel layout                           : L R C LFE Ls Rs Lb Rb
  40. Sampling rate                            : 48.0 kHz
  41. Frame rate                               : 1 200.000 FPS (40 SPF)
  42. Compression mode                         : Lossless
  43. Stream size                              : 1.93 GiB (4%)
  44. Title                                    : Stand.by.Me.1986.2160p.BluRay.x264.8bit.SDR.DTS-HD.MA.TrueHD.7.1.Atmos-SWTYBLZ
  45. Language                                 : English
  46. Default                                  : Yes
  47. Forced                                   : No
  48. Number of dynamic objects                : 11
  49. Bed channel count                        : 1 channel
  50. Bed channel configuration                : LFE

  51. Audio #2
  52. ID                                       : 3
  53. Format                                   : DTS XLL
  54. Format/Info                              : Digital Theater Systems
  55. Commercial name                          : DTS-HD Master Audio
  56. Codec ID                                 : A_DTS
  57. Duration                                 : 1 h 28 min
  58. Bit rate mode                            : Variable
  59. Bit rate                                 : 4 075 kb/s
  60. Channel(s)                               : 8 channels
  61. Channel layout                           : C L R LFE Lb Rb Lss Rss
  62. Sampling rate                            : 48.0 kHz
  63. Frame rate                               : 93.750 FPS (512 SPF)
  64. Bit depth                                : 24 bits
  65. Compression mode                         : Lossless
  66. Stream size                              : 2.52 GiB (5%)
  67. Title                                    : Stand.by.Me.1986.2160p.BluRay.x264.8bit.SDR.DTS-HD.MA.TrueHD.7.1.Atmos-SWTYBLZ
  68. Language                                 : English
  69. Default                                  : No
  70. Forced                                   : No

  71. Audio #3
  72. ID                                       : 4
  73. Format                                   : AC-3
  74. Format/Info                              : Audio Coding 3
  75. Commercial name                          : Dolby Digital
  76. Codec ID                                 : A_AC3
  77. Duration                                 : 1 h 28 min
  78. Bit rate mode                            : Constant
  79. Bit rate                                 : 640 kb/s
  80. Channel(s)                               : 6 channels
  81. Channel layout                           : L R C LFE Ls Rs
  82. Sampling rate                            : 48.0 kHz
  83. Frame rate                               : 31.250 FPS (1536 SPF)
  84. Bit depth                                : 16 bits
  85. Compression mode                         : Lossy
  86. Stream size                              : 405 MiB (1%)
  87. Title                                    : Stand.by.Me.1986.2160p.BluRay.x264.8bit.SDR.DTS-HD.MA.TrueHD.7.1.Atmos-SWTYBLZ
  88. Language                                 : English
  89. Service kind                             : Complete Main
  90. Default                                  : No
  91. Forced                                   : No

  92. Text #1
  93. ID                                       : 6
  94. Format                                   : UTF-8
  95. Codec ID                                 : S_TEXT/UTF8
  96. Codec ID/Info                            : UTF-8 Plain Text
  97. Duration                                 : 1 h 26 min
  98. Bit rate                                 : 72 b/s
  99. Count of elements                        : 1326
  100. Stream size                              : 46.4 KiB (0%)
  101. Title                                    : English-SRT
  102. Language                                 : English
  103. Default                                  : Yes
  104. Forced                                   : No

  105. Text #2
  106. ID                                       : 7
  107. Format                                   : PGS
  108. Muxing mode                              : zlib
  109. Codec ID                                 : S_HDMV/PGS
  110. Codec ID/Info                            : Picture based subtitle format used on BDs/HD-DVDs
  111. Duration                                 : 1 h 21 min
  112. Bit rate                                 : 46.1 kb/s
  113. Count of elements                        : 2445
  114. Stream size                              : 27.0 MiB (0%)
  115. Title                                    : English-PGS
  116. Language                                 : English
  117. Default                                  : No
  118. Forced                                   : No

  119. Text #3
  120. ID                                       : 8
  121. Format                                   : PGS
  122. Muxing mode                              : zlib
  123. Codec ID                                 : S_HDMV/PGS
  124. Codec ID/Info                            : Picture based subtitle format used on BDs/HD-DVDs
  125. Duration                                 : 1 h 27 min
  126. Bit rate                                 : 50.6 kb/s
  127. Count of elements                        : 2889
  128. Stream size                              : 31.7 MiB (0%)
  129. Title                                    : English-SDH-PGS
  130. Language                                 : English
  131. Default                                  : No
  132. Forced                                   : No

  133. Text #4
  134. ID                                       : 9
  135. Format                                   : PGS
  136. Muxing mode                              : zlib
  137. Codec ID                                 : S_HDMV/PGS
  138. Codec ID/Info                            : Picture based subtitle format used on BDs/HD-DVDs
  139. Duration                                 : 1 h 21 min
  140. Bit rate                                 : 46.1 kb/s
  141. Count of elements                        : 2445
  142. Stream size                              : 27.0 MiB (0%)
  143. Title                                    : English-PGS
  144. Language                                 : English
  145. Default                                  : No
  146. Forced                                   : No

  147. Text #5
  148. ID                                       : 10
  149. Format                                   : PGS
  150. Muxing mode                              : zlib
  151. Codec ID                                 : S_HDMV/PGS
  152. Codec ID/Info                            : Picture based subtitle format used on BDs/HD-DVDs
  153. Duration                                 : 1 h 27 min
  154. Bit rate                                 : 50.6 kb/s
  155. Count of elements                        : 2889
  156. Stream size                              : 31.7 MiB (0%)
  157. Title                                    : English-SDH-PGS
  158. Language                                 : English
  159. Default                                  : No
  160. Forced                                   : No

  161. Text #6
  162. ID                                       : 11
  163. Format                                   : PGS
  164. Muxing mode                              : zlib
  165. Codec ID                                 : S_HDMV/PGS
  166. Codec ID/Info                            : Picture based subtitle format used on BDs/HD-DVDs
  167. Duration                                 : 1 h 22 min
  168. Bit rate                                 : 22.0 kb/s
  169. Count of elements                        : 2190
  170. Stream size                              : 13.0 MiB (0%)
  171. Title                                    : Arabic-PGS
  172. Language                                 : Arabic
  173. Default                                  : No
  174. Forced                                   : No

  175. Text #7
  176. ID                                       : 12
  177. Format                                   : PGS
  178. Muxing mode                              : zlib
  179. Codec ID                                 : S_HDMV/PGS
  180. Codec ID/Info                            : Picture based subtitle format used on BDs/HD-DVDs
  181. Duration                                 : 1 h 22 min
  182. Bit rate                                 : 34.3 kb/s
  183. Count of elements                        : 2306
  184. Stream size                              : 20.3 MiB (0%)
  185. Title                                    : Chinese-PGS
  186. Language                                 : Chinese
  187. Default                                  : No
  188. Forced                                   : No

  189. Text #8
  190. ID                                       : 13
  191. Format                                   : PGS
  192. Muxing mode                              : zlib
  193. Codec ID                                 : S_HDMV/PGS
  194. Codec ID/Info                            : Picture based subtitle format used on BDs/HD-DVDs
  195. Duration                                 : 1 h 22 min
  196. Bit rate                                 : 35.8 kb/s
  197. Count of elements                        : 2304
  198. Stream size                              : 21.2 MiB (0%)
  199. Title                                    : Croatian-PGS
  200. Language                                 : Croatian
  201. Default                                  : No
  202. Forced                                   : No

  203. Text #9
  204. ID                                       : 14
  205. Format                                   : PGS
  206. Muxing mode                              : zlib
  207. Codec ID                                 : S_HDMV/PGS
  208. Codec ID/Info                            : Picture based subtitle format used on BDs/HD-DVDs
  209. Duration                                 : 1 h 22 min
  210. Bit rate                                 : 35.3 kb/s
  211. Count of elements                        : 2182
  212. Stream size                              : 20.9 MiB (0%)
  213. Title                                    : Czech-PGS
  214. Language                                 : Czech
  215. Default                                  : No
  216. Forced                                   : No

  217. Text #10
  218. ID                                       : 15
  219. Format                                   : PGS
  220. Muxing mode                              : zlib
  221. Codec ID                                 : S_HDMV/PGS
  222. Codec ID/Info                            : Picture based subtitle format used on BDs/HD-DVDs
  223. Duration                                 : 1 h 22 min
  224. Bit rate                                 : 38.7 kb/s
  225. Count of elements                        : 2154
  226. Stream size                              : 23.0 MiB (0%)
  227. Title                                    : Danish-PGS
  228. Language                                 : Danish
  229. Default                                  : No
  230. Forced                                   : No

  231. Text #11
  232. ID                                       : 16
  233. Format                                   : PGS
  234. Muxing mode                              : zlib
  235. Codec ID                                 : S_HDMV/PGS
  236. Codec ID/Info                            : Picture based subtitle format used on BDs/HD-DVDs
  237. Duration                                 : 1 h 22 min
  238. Bit rate                                 : 39.4 kb/s
  239. Count of elements                        : 2154
  240. Stream size                              : 23.4 MiB (0%)
  241. Title                                    : Dutch-PGS
  242. Language                                 : Dutch
  243. Default                                  : No
  244. Forced                                   : No

  245. Text #12
  246. ID                                       : 17
  247. Format                                   : PGS
  248. Muxing mode                              : zlib
  249. Codec ID                                 : S_HDMV/PGS
  250. Codec ID/Info                            : Picture based subtitle format used on BDs/HD-DVDs
  251. Duration                                 : 1 h 22 min
  252. Bit rate                                 : 34.2 kb/s
  253. Count of elements                        : 2124
  254. Stream size                              : 20.3 MiB (0%)
  255. Title                                    : Finnish-PGS
  256. Language                                 : Finnish
  257. Default                                  : No
  258. Forced                                   : No

  259. Text #13
  260. ID                                       : 18
  261. Format                                   : PGS
  262. Muxing mode                              : zlib
  263. Codec ID                                 : S_HDMV/PGS
  264. Codec ID/Info                            : Picture based subtitle format used on BDs/HD-DVDs
  265. Duration                                 : 1 h 27 min
  266. Bit rate                                 : 38.6 kb/s
  267. Count of elements                        : 2186
  268. Stream size                              : 24.1 MiB (0%)
  269. Title                                    : French-PGS
  270. Language                                 : French
  271. Default                                  : No
  272. Forced                                   : No

  273. Text #14
  274. ID                                       : 19
  275. Format                                   : PGS
  276. Muxing mode                              : zlib
  277. Codec ID                                 : S_HDMV/PGS
  278. Codec ID/Info                            : Picture based subtitle format used on BDs/HD-DVDs
  279. Duration                                 : 1 h 22 min
  280. Bit rate                                 : 47.7 kb/s
  281. Count of elements                        : 2188
  282. Stream size                              : 28.1 MiB (0%)
  283. Title                                    : German-PGS
  284. Language                                 : German
  285. Default                                  : No
  286. Forced                                   : No

  287. Text #15
  288. ID                                       : 20
  289. Format                                   : PGS
  290. Muxing mode                              : zlib
  291. Codec ID                                 : S_HDMV/PGS
  292. Codec ID/Info                            : Picture based subtitle format used on BDs/HD-DVDs
  293. Duration                                 : 1 h 27 min
  294. Bit rate                                 : 38.6 kb/s
  295. Count of elements                        : 2204
  296. Stream size                              : 24.1 MiB (0%)
  297. Title                                    : Greek-PGS
  298. Language                                 : Greek
  299. Default                                  : No
  300. Forced                                   : No

  301. Text #16
  302. ID                                       : 21
  303. Format                                   : PGS
  304. Muxing mode                              : zlib
  305. Codec ID                                 : S_HDMV/PGS
  306. Codec ID/Info                            : Picture based subtitle format used on BDs/HD-DVDs
  307. Duration                                 : 1 h 22 min
  308. Bit rate                                 : 27.6 kb/s
  309. Count of elements                        : 2196
  310. Stream size                              : 16.4 MiB (0%)
  311. Title                                    : Hebrew-PGS
  312. Language                                 : Hebrew
  313. Default                                  : No
  314. Forced                                   : No

  315. Text #17
  316. ID                                       : 22
  317. Format                                   : PGS
  318. Muxing mode                              : zlib
  319. Codec ID                                 : S_HDMV/PGS
  320. Codec ID/Info                            : Picture based subtitle format used on BDs/HD-DVDs
  321. Duration                                 : 1 h 22 min
  322. Bit rate                                 : 28.8 kb/s
  323. Count of elements                        : 2194
  324. Stream size                              : 17.1 MiB (0%)
  325. Title                                    : Hindi-PGS
  326. Language                                 : Hindi
  327. Default                                  : No
  328. Forced                                   : No

  329. Text #18
  330. ID                                       : 23
  331. Format                                   : PGS
  332. Muxing mode                              : zlib
  333. Codec ID                                 : S_HDMV/PGS
  334. Codec ID/Info                            : Picture based subtitle format used on BDs/HD-DVDs
  335. Duration                                 : 1 h 22 min
  336. Bit rate                                 : 38.9 kb/s
  337. Count of elements                        : 2160
  338. Stream size                              : 23.1 MiB (0%)
  339. Title                                    : Hungarian-PGS
  340. Language                                 : Hungarian
  341. Default                                  : No
  342. Forced                                   : No

  343. Text #19
  344. ID                                       : 24
  345. Format                                   : PGS
  346. Muxing mode                              : zlib
  347. Codec ID                                 : S_HDMV/PGS
  348. Codec ID/Info                            : Picture based subtitle format used on BDs/HD-DVDs
  349. Duration                                 : 1 h 22 min
  350. Bit rate                                 : 45.1 kb/s
  351. Count of elements                        : 2302
  352. Stream size                              : 26.7 MiB (0%)
  353. Title                                    : Indonesian-PGS
  354. Language                                 : Indonesian
  355. Default                                  : No
  356. Forced                                   : No

  357. Text #20
  358. ID                                       : 25
  359. Format                                   : PGS
  360. Muxing mode                              : zlib
  361. Codec ID                                 : S_HDMV/PGS
  362. Codec ID/Info                            : Picture based subtitle format used on BDs/HD-DVDs
  363. Duration                                 : 1 h 22 min
  364. Bit rate                                 : 37.9 kb/s
  365. Count of elements                        : 2131
  366. Stream size                              : 22.5 MiB (0%)
  367. Title                                    : Italian-PGS
  368. Language                                 : Italian
  369. Default                                  : No
  370. Forced                                   : No

  371. Text #21
  372. ID                                       : 26
  373. Format                                   : PGS
  374. Muxing mode                              : zlib
  375. Codec ID                                 : S_HDMV/PGS
  376. Codec ID/Info                            : Picture based subtitle format used on BDs/HD-DVDs
  377. Duration                                 : 1 h 24 min
  378. Bit rate                                 : 25.1 kb/s
  379. Count of elements                        : 2059
  380. Stream size                              : 15.2 MiB (0%)
  381. Title                                    : Japanese-PGS
  382. Language                                 : Japanese
  383. Default                                  : No
  384. Forced                                   : No

  385. Text #22
  386. ID                                       : 27
  387. Format                                   : PGS
  388. Muxing mode                              : zlib
  389. Codec ID                                 : S_HDMV/PGS
  390. Codec ID/Info                            : Picture based subtitle format used on BDs/HD-DVDs
  391. Duration                                 : 1 h 23 min
  392. Bit rate                                 : 26.5 kb/s
  393. Count of elements                        : 2308
  394. Stream size                              : 15.8 MiB (0%)
  395. Title                                    : Korean-PGS
  396. Language                                 : Korean
  397. Default                                  : No
  398. Forced                                   : No

  399. Text #23
  400. ID                                       : 28
  401. Format                                   : PGS
  402. Muxing mode                              : zlib
  403. Codec ID                                 : S_HDMV/PGS
  404. Codec ID/Info                            : Picture based subtitle format used on BDs/HD-DVDs
  405. Duration                                 : 1 h 22 min
  406. Bit rate                                 : 37.9 kb/s
  407. Count of elements                        : 2182
  408. Stream size                              : 22.5 MiB (0%)
  409. Title                                    : Norwegian-PGS
  410. Language                                 : Norwegian
  411. Default                                  : No
  412. Forced                                   : No

  413. Text #24
  414. ID                                       : 29
  415. Format                                   : PGS
  416. Muxing mode                              : zlib
  417. Codec ID                                 : S_HDMV/PGS
  418. Codec ID/Info                            : Picture based subtitle format used on BDs/HD-DVDs
  419. Duration                                 : 1 h 27 min
  420. Bit rate                                 : 36.6 kb/s
  421. Count of elements                        : 2190
  422. Stream size                              : 22.9 MiB (0%)
  423. Title                                    : Polish-PGS
  424. Language                                 : Polish
  425. Default                                  : No
  426. Forced                                   : No

  427. Text #25
  428. ID                                       : 30
  429. Format                                   : PGS
  430. Muxing mode                              : zlib
  431. Codec ID                                 : S_HDMV/PGS
  432. Codec ID/Info                            : Picture based subtitle format used on BDs/HD-DVDs
  433. Duration                                 : 1 h 23 min
  434. Bit rate                                 : 42.2 kb/s
  435. Count of elements                        : 2304
  436. Stream size                              : 25.2 MiB (0%)
  437. Title                                    : Portuguese-PGS
  438. Language                                 : Portuguese
  439. Default                                  : No
  440. Forced                                   : No

  441. Text #26
  442. ID                                       : 31
  443. Format                                   : PGS
  444. Muxing mode                              : zlib
  445. Codec ID                                 : S_HDMV/PGS
  446. Codec ID/Info                            : Picture based subtitle format used on BDs/HD-DVDs
  447. Duration                                 : 1 h 27 min
  448. Bit rate                                 : 36.9 kb/s
  449. Count of elements                        : 2162
  450. Stream size                              : 23.2 MiB (0%)
  451. Title                                    : Portuguese-PGS
  452. Language                                 : Portuguese
  453. Default                                  : No
  454. Forced                                   : No

  455. Text #27
  456. ID                                       : 32
  457. Format                                   : PGS
  458. Muxing mode                              : zlib
  459. Codec ID                                 : S_HDMV/PGS
  460. Codec ID/Info                            : Picture based subtitle format used on BDs/HD-DVDs
  461. Duration                                 : 1 h 22 min
  462. Bit rate                                 : 37.8 kb/s
  463. Count of elements                        : 2302
  464. Stream size                              : 22.4 MiB (0%)
  465. Title                                    : Slovak-PGS
  466. Language                                 : Slovak
  467. Default                                  : No
  468. Forced                                   : No

  469. Text #28
  470. ID                                       : 33
  471. Format                                   : PGS
  472. Muxing mode                              : zlib
  473. Codec ID                                 : S_HDMV/PGS
  474. Codec ID/Info                            : Picture based subtitle format used on BDs/HD-DVDs
  475. Duration                                 : 1 h 22 min
  476. Bit rate                                 : 38.4 kb/s
  477. Count of elements                        : 2190
  478. Stream size                              : 22.8 MiB (0%)
  479. Title                                    : Spanish-PGS
  480. Language                                 : Spanish
  481. Default                                  : No
  482. Forced                                   : No

  483. Text #29
  484. ID                                       : 34
  485. Format                                   : PGS
  486. Muxing mode                              : zlib
  487. Codec ID                                 : S_HDMV/PGS
  488. Codec ID/Info                            : Picture based subtitle format used on BDs/HD-DVDs
  489. Duration                                 : 4 s 46 ms
  490. Bit rate                                 : 114 kb/s
  491. Count of elements                        : 4
  492. Stream size                              : 56.3 KiB (0%)
  493. Title                                    : Spanish-PGS
  494. Language                                 : Spanish
  495. Default                                  : No
  496. Forced                                   : No

  497. Text #30
  498. ID                                       : 35
  499. Format                                   : PGS
  500. Muxing mode                              : zlib
  501. Codec ID                                 : S_HDMV/PGS
  502. Codec ID/Info                            : Picture based subtitle format used on BDs/HD-DVDs
  503. Duration                                 : 1 h 23 min
  504. Bit rate                                 : 43.1 kb/s
  505. Count of elements                        : 2304
  506. Stream size                              : 25.7 MiB (0%)
  507. Title                                    : Spanish-PGS
  508. Language                                 : Spanish
  509. Default                                  : No
  510. Forced                                   : No

  511. Text #31
  512. ID                                       : 36
  513. Format                                   : PGS
  514. Muxing mode                              : zlib
  515. Codec ID                                 : S_HDMV/PGS
  516. Codec ID/Info                            : Picture based subtitle format used on BDs/HD-DVDs
  517. Duration                                 : 1 h 27 min
  518. Bit rate                                 : 30.4 kb/s
  519. Count of elements                        : 2112
  520. Stream size                              : 19.0 MiB (0%)
  521. Title                                    : Swedish-PGS
  522. Language                                 : Swedish
  523. Default                                  : No
  524. Forced                                   : No

  525. Text #32
  526. ID                                       : 37
  527. Format                                   : PGS
  528. Muxing mode                              : zlib
  529. Codec ID                                 : S_HDMV/PGS
  530. Codec ID/Info                            : Picture based subtitle format used on BDs/HD-DVDs
  531. Duration                                 : 1 h 22 min
  532. Bit rate                                 : 36.3 kb/s
  533. Count of elements                        : 2306
  534. Stream size                              : 21.5 MiB (0%)
  535. Title                                    : Thai-PGS
  536. Language                                 : Thai
  537. Default                                  : No
  538. Forced                                   : No

  539. Text #33
  540. ID                                       : 38
  541. Format                                   : PGS
  542. Muxing mode                              : zlib
  543. Codec ID                                 : S_HDMV/PGS
  544. Codec ID/Info                            : Picture based subtitle format used on BDs/HD-DVDs
  545. Duration                                 : 1 h 22 min
  546. Bit rate                                 : 42.6 kb/s
  547. Count of elements                        : 2204
  548. Stream size                              : 25.3 MiB (0%)
  549. Title                                    : Turkish-PGS
  550. Language                                 : Turkish
  551. Default                                  : No
  552. Forced                                   : No

  553. Menu
  554. 00:00:00.000                             : en:Chapter 01
  555. 00:06:29.889                             : en:Chapter 02
  556. 00:14:10.349                             : en:Chapter 03
  557. 00:16:57.016                             : en:Chapter 04
  558. 00:24:40.645                             : en:Chapter 05
  559. 00:31:52.911                             : en:Chapter 06
  560. 00:36:31.522                             : en:Chapter 07
  561. 00:42:05.314                             : en:Chapter 08
  562. 00:52:43.451                             : en:Chapter 09
  563. 00:59:29.941                             : en:Chapter 10
  564. 01:03:13.456                             : en:Chapter 11
  565. 01:07:35.676                             : en:Chapter 12
  566. 01:09:55.816                             : en:Chapter 13
  567. 01:14:19.496                             : en:Chapter 14
  568. 01:19:13.999                             : en:Chapter 15
  569. 01:22:19.684                             : en:Chapter 16
复制代码

伴我同行/与我常在 Stand.by.Me.1986.2160p.BluRay.x264.8bit.SDR.DTS-HD.MA.TrueHD.7.1.Atmos-SWTYBLZ 50.70GB-2.png 伴我同行/与我常在 Stand.by.Me.1986.2160p.BluRay.x264.8bit.SDR.DTS-HD.MA.TrueHD.7.1.Atmos-SWTYBLZ 50.70GB-3.png 伴我同行/与我常在 Stand.by.Me.1986.2160p.BluRay.x264.8bit.SDR.DTS-HD.MA.TrueHD.7.1.Atmos-SWTYBLZ 50.70GB-4.png 伴我同行/与我常在 Stand.by.Me.1986.2160p.BluRay.x264.8bit.SDR.DTS-HD.MA.TrueHD.7.1.Atmos-SWTYBLZ 50.70GB-5.png 伴我同行/与我常在 Stand.by.Me.1986.2160p.BluRay.x264.8bit.SDR.DTS-HD.MA.TrueHD.7.1.Atmos-SWTYBLZ 50.70GB-6.png 伴我同行/与我常在 Stand.by.Me.1986.2160p.BluRay.x264.8bit.SDR.DTS-HD.MA.TrueHD.7.1.Atmos-SWTYBLZ 50.70GB-7.png 伴我同行/与我常在 Stand.by.Me.1986.2160p.BluRay.x264.8bit.SDR.DTS-HD.MA.TrueHD.7.1.Atmos-SWTYBLZ 50.70GB-8.png






开通VIP免费下载本站所有资源---点这里
新手必看:资源下载、资源播放、字幕使用、等常见问题---点这里
回复

使用道具 举报

发表于 2019-9-1 21:19:02 | 显示全部楼层
非常经典的青少年成长电影
开通VIP免费下载本站所有资源---点这里
新手必看:资源下载、资源播放、字幕使用、等常见问题---点这里
回复 支持 反对

使用道具 举报

发表于 2019-9-1 22:12:39 | 显示全部楼层

谢谢楼主分享
开通VIP免费下载本站所有资源---点这里
新手必看:资源下载、资源播放、字幕使用、等常见问题---点这里
回复 支持 反对

使用道具 举报

发表于 2019-9-2 00:09:42 | 显示全部楼层

楼主太厉害了!楼主,电影应该很好看我觉得蓝光电影网真是个好地方!
开通VIP免费下载本站所有资源---点这里
新手必看:资源下载、资源播放、字幕使用、等常见问题---点这里
回复 支持 反对

使用道具 举报

发表于 2019-9-2 09:05:04 | 显示全部楼层
楼主发贴辛苦了,谢谢楼主分享!我觉得蓝光电影网是注册对了!
开通VIP免费下载本站所有资源---点这里
新手必看:资源下载、资源播放、字幕使用、等常见问题---点这里
回复 支持 反对

使用道具 举报

发表于 2019-9-2 15:37:18 | 显示全部楼层
哇,这么好的资源,顶!
开通VIP免费下载本站所有资源---点这里
新手必看:资源下载、资源播放、字幕使用、等常见问题---点这里
回复 支持 反对

使用道具 举报

发表于 2019-9-2 15:59:39 | 显示全部楼层
好奇怪的电影,谢了。
开通VIP免费下载本站所有资源---点这里
新手必看:资源下载、资源播放、字幕使用、等常见问题---点这里
回复 支持 反对

使用道具 举报

发表于 2019-9-2 18:24:45 | 显示全部楼层

楼主,大恩不言谢了!蓝光电影网是最棒的!
开通VIP免费下载本站所有资源---点这里
新手必看:资源下载、资源播放、字幕使用、等常见问题---点这里
回复 支持 反对

使用道具 举报

发表于 2019-9-2 19:07:46 | 显示全部楼层
谢谢楼主分享资源
开通VIP免费下载本站所有资源---点这里
新手必看:资源下载、资源播放、字幕使用、等常见问题---点这里
回复 支持 反对

使用道具 举报

发表于 2019-9-2 23:22:04 | 显示全部楼层
感觉不错,
开通VIP免费下载本站所有资源---点这里
新手必看:资源下载、资源播放、字幕使用、等常见问题---点这里
回复

使用道具 举报

懒得打字嘛,点击右侧快捷回复 【右侧内容,后台自定义】
您需要登录后才可以回帖 登录 | 立即加入

本版积分规则

现在加入蓝光电影网,注册一个账号

QQ| 手机版|小黑屋| 蓝光电影网 |网站地图

Copyright © 2015-2019 Comsenz Inc.  Template by 蓝光电影网 All Rights Reserved.

Powered by 蓝光电影网 X3.4

特别声明:本站所有资源均由网上收集而来,版权归原影音公司所有,如果侵犯了你的权益,请通知我们,我们会及时删除侵权内容.

快速回复 返回顶部 返回列表