找回密码

蓝光电影网

查看: 401|回复: 5

[REMUX.HEVC] 伴我同行/与我常在 Stand.by.Me.1986.2160p.BluRay.REMUX.HEVC.DTS-HD.MA.TrueHD.7.1.Atmos-FGT 50.32GB

[复制链接]

 成长值: 1345

发表于 2019-8-31 15:49:36 | 显示全部楼层 |阅读模式
伴我同行/与我常在 Stand.by.Me.1986.2160p.BluRay.REMUX.HEVC.DTS-HD.MA.TrueHD.7.1.Atmos-FGT 50.32GB-1.png

译  名 伴我同行 / 与我常在 / 同仇敌忾 / 站在我这边
片  名 Stand by Me
年  代 1986
产  地 美国
类  别 剧情 / 儿童 / 冒险
语  言 英语
上映日期 1986-08-08(美国)
IMDb评分  8.1/10 from 337546 users
IMDb链接  http://www.imdb.com/title/tt0092005
豆瓣评分 8.9/10 from 70904 users
豆瓣链接 https://movie.douban.com/subject/1292925/
片  长 89分钟
导  演 罗伯·莱纳 Rob Reiner
编  剧 雷纳尔多·吉迪恩 Raynold Gideon / 布鲁斯·A·埃文斯 Bruce A. Evans / 斯蒂芬·金 Stephen King
主  演 瑞凡·菲尼克斯 River Phoenix
       威尔·惠顿 Wil Wheaton
       科里·费尔德曼 Corey Feldman
       杰瑞·奥康奈尔 Jerry O'Connell
       约翰·库萨克 John Cusack
       理查德·德莱弗斯 Richard Dreyfuss
       基弗·萨瑟兰 Kiefer Sutherland


标  签 成长 | 美国 | 青春 | 童年 | 友情 | 1986 | 剧情 | 经典

简  介  

  这是一部关于成长的电影。著名作家戈迪(理查德?德莱福斯 Richard Dreyfuss 饰)回忆起他12岁时的一次冒险活动:当时,年少的戈迪(威尔?惠顿 Wil Wheaton 饰)与他的三个小伙伴克里斯(瑞凡?菲尼克斯 River Phoenix 饰)、泰迪(科里?费尔德曼 Corey Feldman 饰)和维恩为了当一回“英雄”去河的对岸的森林里寻找一具12岁男孩的尸体。
  4个少年家庭各有问题,他们都有自己的心事。在旅程中每个人的性格都被体现得淋漓尽致:四个男孩性格中的软弱和坚强,在闪火车,翻铁门,越森林等一系列的行动中被最大限度的放大;每个人都有自己可望而不可及的梦想……
  1987年金球奖最佳电影、最佳导演提名,1987年奥斯卡奖最佳编剧提名

获奖情况  

  第59届奥斯卡金像奖(1987)
  最佳改编剧本(提名) 布鲁斯·A·埃文斯 / 雷纳尔多·吉迪恩
  1. Video
  2. ID                                       : 1
  3. Format                                   : HEVC
  4. Format/Info                              : High Efficiency Video Coding
  5. Format profile                           : Main <a href="/cdn-cgi/l/email-protection" class="__cf_email__" data-cfemail="4574750509706b74">[email protected]</a>@High
  6. HDR format                               : SMPTE ST 2086, HDR10 compatible
  7. Codec ID                                 : V_MPEGH/ISO/HEVC
  8. Duration                                 : 1 h 28 min
  9. Bit rate                                 : 65.1 Mb/s
  10. Width                                    : 3 840 pixels
  11. Height                                   : 2 160 pixels
  12. Display aspect ratio                     : 16:9
  13. Frame rate mode                          : Constant
  14. Frame rate                               : 23.976 (24000/1001) FPS
  15. Color space                              : YUV
  16. Chroma subsampling                       : 4:2:0 (Type 2)
  17. Bit depth                                : 10 bits
  18. Bits/(Pixel*Frame)                       : 0.327
  19. Stream size                              : 40.3 GiB (80%)
  20. Title                                    : Stand.by.Me.1986.2160p.BluRay.REMUX.HEVC.DTS-HD.MA.TrueHD.7.1.Atmos-FGT
  21. Language                                 : English
  22. Default                                  : No
  23. Forced                                   : No
  24. Color range                              : Limited
  25. Color primaries                          : BT.2020
  26. Transfer characteristics                 : PQ
  27. Matrix coefficients                      : BT.2020 non-constant
  28. Mastering display color primaries        : Display P3
  29. Mastering display luminance              : min: 0.0050 cd/m2, max: 4000 cd/m2
  30. Maximum Content Light Level              : 3646 cd/m2
  31. Maximum Frame-Average Light Level        : 166 cd/m2

  32. Audio #1
  33. ID                                       : 2
  34. Format                                   : MLP FBA 16-ch
  35. Format/Info                              : Meridian Lossless Packing FBA with 16-channel presentation
  36. Commercial name                          : Dolby TrueHD with Dolby Atmos
  37. Codec ID                                 : A_TRUEHD
  38. Duration                                 : 1 h 28 min
  39. Bit rate mode                            : Variable
  40. Bit rate                                 : 3 121 kb/s
  41. Maximum bit rate                         : 4 866 kb/s
  42. Channel(s)                               : 8 channels
  43. Channel layout                           : L R C LFE Ls Rs Lb Rb
  44. Sampling rate                            : 48.0 kHz
  45. Frame rate                               : 1 200.000 FPS (40 SPF)
  46. Compression mode                         : Lossless
  47. Stream size                              : 1.93 GiB (4%)
  48. Title                                    : Stand.by.Me.1986.2160p.BluRay.REMUX.HEVC.DTS-HD.MA.TrueHD.7.1.Atmos-FGT
  49. Language                                 : English
  50. Default                                  : Yes
  51. Forced                                   : No
  52. Number of dynamic objects                : 11
  53. Bed channel count                        : 1 channel
  54. Bed channel configuration                : LFE

  55. Audio #2
  56. ID                                       : 3
  57. Format                                   : DTS XLL
  58. Format/Info                              : Digital Theater Systems
  59. Commercial name                          : DTS-HD Master Audio
  60. Codec ID                                 : A_DTS
  61. Duration                                 : 1 h 28 min
  62. Bit rate mode                            : Variable
  63. Bit rate                                 : 4 075 kb/s
  64. Channel(s)                               : 8 channels
  65. Channel layout                           : C L R LFE Lb Rb Lss Rss
  66. Sampling rate                            : 48.0 kHz
  67. Frame rate                               : 93.750 FPS (512 SPF)
  68. Bit depth                                : 24 bits
  69. Compression mode                         : Lossless
  70. Stream size                              : 2.52 GiB (5%)
  71. Title                                    : Stand.by.Me.1986.2160p.BluRay.REMUX.HEVC.DTS-HD.MA.TrueHD.7.1.Atmos-FGT
  72. Language                                 : English
  73. Default                                  : No
  74. Forced                                   : No

  75. Audio #3
  76. ID                                       : 4
  77. Format                                   : AC-3
  78. Format/Info                              : Audio Coding 3
  79. Commercial name                          : Dolby Digital
  80. Codec ID                                 : A_AC3
  81. Duration                                 : 1 h 28 min
  82. Bit rate mode                            : Constant
  83. Bit rate                                 : 640 kb/s
  84. Channel(s)                               : 6 channels
  85. Channel layout                           : L R C LFE Ls Rs
  86. Sampling rate                            : 48.0 kHz
  87. Frame rate                               : 31.250 FPS (1536 SPF)
  88. Bit depth                                : 16 bits
  89. Compression mode                         : Lossy
  90. Stream size                              : 405 MiB (1%)
  91. Title                                    : Stand.by.Me.1986.2160p.BluRay.REMUX.HEVC.DTS-HD.MA.TrueHD.7.1.Atmos-FGT
  92. Language                                 : English
  93. Service kind                             : Complete Main
  94. Default                                  : No
  95. Forced                                   : No

  96. Audio #4
  97. ID                                       : 5
  98. Format                                   : DTS XLL
  99. Format/Info                              : Digital Theater Systems
  100. Commercial name                          : DTS-HD Master Audio
  101. Codec ID                                 : A_DTS
  102. Duration                                 : 1 h 28 min
  103. Bit rate mode                            : Variable
  104. Bit rate                                 : 1 561 kb/s
  105. Channel(s)                               : 2 channels
  106. Channel layout                           : L R
  107. Sampling rate                            : 48.0 kHz
  108. Frame rate                               : 93.750 FPS (512 SPF)
  109. Bit depth                                : 16 bits
  110. Compression mode                         : Lossless
  111. Stream size                              : 989 MiB (2%)
  112. Title                                    : Stand.by.Me.1986.2160p.BluRay.REMUX.HEVC.DTS-HD.MA.TrueHD.7.1.Atmos-FGT
  113. Language                                 : English
  114. Default                                  : No
  115. Forced                                   : No

  116. Audio #5
  117. ID                                       : 6
  118. Format                                   : AC-3
  119. Format/Info                              : Audio Coding 3
  120. Commercial name                          : Dolby Digital
  121. Codec ID                                 : A_AC3
  122. Duration                                 : 1 h 28 min
  123. Bit rate mode                            : Constant
  124. Bit rate                                 : 640 kb/s
  125. Channel(s)                               : 6 channels
  126. Channel layout                           : L R C LFE Ls Rs
  127. Sampling rate                            : 48.0 kHz
  128. Frame rate                               : 31.250 FPS (1536 SPF)
  129. Bit depth                                : 16 bits
  130. Compression mode                         : Lossy
  131. Stream size                              : 405 MiB (1%)
  132. Title                                    : Stand.by.Me.1986.2160p.BluRay.REMUX.HEVC.DTS-HD.MA.TrueHD.7.1.Atmos-FGT
  133. Language                                 : Czech
  134. Service kind                             : Complete Main
  135. Default                                  : No
  136. Forced                                   : No

  137. Audio #6
  138. ID                                       : 7
  139. Format                                   : AC-3
  140. Format/Info                              : Audio Coding 3
  141. Commercial name                          : Dolby Digital
  142. Codec ID                                 : A_AC3
  143. Duration                                 : 1 h 28 min
  144. Bit rate mode                            : Constant
  145. Bit rate                                 : 640 kb/s
  146. Channel(s)                               : 6 channels
  147. Channel layout                           : L R C LFE Ls Rs
  148. Sampling rate                            : 48.0 kHz
  149. Frame rate                               : 31.250 FPS (1536 SPF)
  150. Bit depth                                : 16 bits
  151. Compression mode                         : Lossy
  152. Stream size                              : 405 MiB (1%)
  153. Title                                    : Stand.by.Me.1986.2160p.BluRay.REMUX.HEVC.DTS-HD.MA.TrueHD.7.1.Atmos-FGT
  154. Language                                 : French
  155. Service kind                             : Complete Main
  156. Default                                  : No
  157. Forced                                   : No

  158. Audio #7
  159. ID                                       : 8
  160. Format                                   : AC-3
  161. Format/Info                              : Audio Coding 3
  162. Commercial name                          : Dolby Digital
  163. Codec ID                                 : A_AC3
  164. Duration                                 : 1 h 28 min
  165. Bit rate mode                            : Constant
  166. Bit rate                                 : 640 kb/s
  167. Channel(s)                               : 6 channels
  168. Channel layout                           : L R C LFE Ls Rs
  169. Sampling rate                            : 48.0 kHz
  170. Frame rate                               : 31.250 FPS (1536 SPF)
  171. Bit depth                                : 16 bits
  172. Compression mode                         : Lossy
  173. Stream size                              : 405 MiB (1%)
  174. Title                                    : Stand.by.Me.1986.2160p.BluRay.REMUX.HEVC.DTS-HD.MA.TrueHD.7.1.Atmos-FGT
  175. Language                                 : German
  176. Service kind                             : Complete Main
  177. Default                                  : No
  178. Forced                                   : No

  179. Audio #8
  180. ID                                       : 9
  181. Format                                   : AC-3
  182. Format/Info                              : Audio Coding 3
  183. Commercial name                          : Dolby Digital
  184. Codec ID                                 : A_AC3
  185. Duration                                 : 1 h 28 min
  186. Bit rate mode                            : Constant
  187. Bit rate                                 : 640 kb/s
  188. Channel(s)                               : 6 channels
  189. Channel layout                           : L R C LFE Ls Rs
  190. Sampling rate                            : 48.0 kHz
  191. Frame rate                               : 31.250 FPS (1536 SPF)
  192. Bit depth                                : 16 bits
  193. Compression mode                         : Lossy
  194. Stream size                              : 405 MiB (1%)
  195. Title                                    : Stand.by.Me.1986.2160p.BluRay.REMUX.HEVC.DTS-HD.MA.TrueHD.7.1.Atmos-FGT
  196. Language                                 : Hungarian
  197. Service kind                             : Complete Main
  198. Default                                  : No
  199. Forced                                   : No

  200. Audio #9
  201. ID                                       : 10
  202. Format                                   : AC-3
  203. Format/Info                              : Audio Coding 3
  204. Commercial name                          : Dolby Digital
  205. Codec ID                                 : A_AC3
  206. Duration                                 : 1 h 28 min
  207. Bit rate mode                            : Constant
  208. Bit rate                                 : 640 kb/s
  209. Channel(s)                               : 6 channels
  210. Channel layout                           : L R C LFE Ls Rs
  211. Sampling rate                            : 48.0 kHz
  212. Frame rate                               : 31.250 FPS (1536 SPF)
  213. Bit depth                                : 16 bits
  214. Compression mode                         : Lossy
  215. Stream size                              : 405 MiB (1%)
  216. Title                                    : Stand.by.Me.1986.2160p.BluRay.REMUX.HEVC.DTS-HD.MA.TrueHD.7.1.Atmos-FGT
  217. Language                                 : Italian
  218. Service kind                             : Complete Main
  219. Default                                  : No
  220. Forced                                   : No

  221. Audio #10
  222. ID                                       : 11
  223. Format                                   : AC-3
  224. Format/Info                              : Audio Coding 3
  225. Commercial name                          : Dolby Digital
  226. Codec ID                                 : A_AC3
  227. Duration                                 : 1 h 28 min
  228. Bit rate mode                            : Constant
  229. Bit rate                                 : 640 kb/s
  230. Channel(s)                               : 6 channels
  231. Channel layout                           : L R C LFE Ls Rs
  232. Sampling rate                            : 48.0 kHz
  233. Frame rate                               : 31.250 FPS (1536 SPF)
  234. Bit depth                                : 16 bits
  235. Compression mode                         : Lossy
  236. Stream size                              : 405 MiB (1%)
  237. Title                                    : Stand.by.Me.1986.2160p.BluRay.REMUX.HEVC.DTS-HD.MA.TrueHD.7.1.Atmos-FGT
  238. Language                                 : Japanese
  239. Service kind                             : Complete Main
  240. Default                                  : No
  241. Forced                                   : No

  242. Audio #11
  243. ID                                       : 12
  244. Format                                   : AC-3
  245. Format/Info                              : Audio Coding 3
  246. Commercial name                          : Dolby Digital
  247. Codec ID                                 : A_AC3
  248. Duration                                 : 1 h 28 min
  249. Bit rate mode                            : Constant
  250. Bit rate                                 : 640 kb/s
  251. Channel(s)                               : 6 channels
  252. Channel layout                           : L R C LFE Ls Rs
  253. Sampling rate                            : 48.0 kHz
  254. Frame rate                               : 31.250 FPS (1536 SPF)
  255. Bit depth                                : 16 bits
  256. Compression mode                         : Lossy
  257. Stream size                              : 405 MiB (1%)
  258. Title                                    : Stand.by.Me.1986.2160p.BluRay.REMUX.HEVC.DTS-HD.MA.TrueHD.7.1.Atmos-FGT
  259. Language                                 : Polish
  260. Service kind                             : Complete Main
  261. Default                                  : No
  262. Forced                                   : No

  263. Audio #12
  264. ID                                       : 13
  265. Format                                   : AC-3
  266. Format/Info                              : Audio Coding 3
  267. Commercial name                          : Dolby Digital
  268. Codec ID                                 : A_AC3
  269. Duration                                 : 1 h 28 min
  270. Bit rate mode                            : Constant
  271. Bit rate                                 : 640 kb/s
  272. Channel(s)                               : 6 channels
  273. Channel layout                           : L R C LFE Ls Rs
  274. Sampling rate                            : 48.0 kHz
  275. Frame rate                               : 31.250 FPS (1536 SPF)
  276. Bit depth                                : 16 bits
  277. Compression mode                         : Lossy
  278. Stream size                              : 405 MiB (1%)
  279. Title                                    : Stand.by.Me.1986.2160p.BluRay.REMUX.HEVC.DTS-HD.MA.TrueHD.7.1.Atmos-FGT
  280. Language                                 : Portuguese
  281. Service kind                             : Complete Main
  282. Default                                  : No
  283. Forced                                   : No

  284. Audio #13
  285. ID                                       : 14
  286. Format                                   : AC-3
  287. Format/Info                              : Audio Coding 3
  288. Commercial name                          : Dolby Digital
  289. Codec ID                                 : A_AC3
  290. Duration                                 : 1 h 28 min
  291. Bit rate mode                            : Constant
  292. Bit rate                                 : 640 kb/s
  293. Channel(s)                               : 6 channels
  294. Channel layout                           : L R C LFE Ls Rs
  295. Sampling rate                            : 48.0 kHz
  296. Frame rate                               : 31.250 FPS (1536 SPF)
  297. Bit depth                                : 16 bits
  298. Compression mode                         : Lossy
  299. Stream size                              : 405 MiB (1%)
  300. Title                                    : Stand.by.Me.1986.2160p.BluRay.REMUX.HEVC.DTS-HD.MA.TrueHD.7.1.Atmos-FGT
  301. Language                                 : Spanish
  302. Service kind                             : Complete Main
  303. Default                                  : No
  304. Forced                                   : No

  305. Audio #14
  306. ID                                       : 15
  307. Format                                   : AC-3
  308. Format/Info                              : Audio Coding 3
  309. Commercial name                          : Dolby Digital
  310. Codec ID                                 : A_AC3
  311. Duration                                 : 1 h 28 min
  312. Bit rate mode                            : Constant
  313. Bit rate                                 : 640 kb/s
  314. Channel(s)                               : 6 channels
  315. Channel layout                           : L R C LFE Ls Rs
  316. Sampling rate                            : 48.0 kHz
  317. Frame rate                               : 31.250 FPS (1536 SPF)
  318. Bit depth                                : 16 bits
  319. Compression mode                         : Lossy
  320. Stream size                              : 405 MiB (1%)
  321. Title                                    : Stand.by.Me.1986.2160p.BluRay.REMUX.HEVC.DTS-HD.MA.TrueHD.7.1.Atmos-FGT
  322. Language                                 : Spanish
  323. Service kind                             : Complete Main
  324. Default                                  : No
  325. Forced                                   : No

  326. Text #1
  327. ID                                       : 16
  328. Format                                   : UTF-8
  329. Codec ID                                 : S_TEXT/UTF8
  330. Codec ID/Info                            : UTF-8 Plain Text
  331. Duration                                 : 1 h 26 min
  332. Bit rate                                 : 72 b/s
  333. Count of elements                        : 1326
  334. Stream size                              : 46.4 KiB (0%)
  335. Title                                    : English-SRT
  336. Language                                 : English
  337. Default                                  : Yes
  338. Forced                                   : No

  339. Text #2
  340. ID                                       : 17
  341. Format                                   : PGS
  342. Muxing mode                              : zlib
  343. Codec ID                                 : S_HDMV/PGS
  344. Codec ID/Info                            : Picture based subtitle format used on BDs/HD-DVDs
  345. Duration                                 : 1 h 21 min
  346. Bit rate                                 : 46.1 kb/s
  347. Count of elements                        : 2445
  348. Stream size                              : 27.0 MiB (0%)
  349. Title                                    : English-PGS
  350. Language                                 : English
  351. Default                                  : No
  352. Forced                                   : No

  353. Text #3
  354. ID                                       : 18
  355. Format                                   : PGS
  356. Muxing mode                              : zlib
  357. Codec ID                                 : S_HDMV/PGS
  358. Codec ID/Info                            : Picture based subtitle format used on BDs/HD-DVDs
  359. Duration                                 : 1 h 27 min
  360. Bit rate                                 : 50.6 kb/s
  361. Count of elements                        : 2889
  362. Stream size                              : 31.7 MiB (0%)
  363. Title                                    : English-SDH-PGS
  364. Language                                 : English
  365. Default                                  : No
  366. Forced                                   : No

  367. Text #4
  368. ID                                       : 19
  369. Format                                   : PGS
  370. Muxing mode                              : zlib
  371. Codec ID                                 : S_HDMV/PGS
  372. Codec ID/Info                            : Picture based subtitle format used on BDs/HD-DVDs
  373. Duration                                 : 1 h 21 min
  374. Bit rate                                 : 46.1 kb/s
  375. Count of elements                        : 2445
  376. Stream size                              : 27.0 MiB (0%)
  377. Title                                    : English-PGS
  378. Language                                 : English
  379. Default                                  : No
  380. Forced                                   : No

  381. Text #5
  382. ID                                       : 20
  383. Format                                   : PGS
  384. Muxing mode                              : zlib
  385. Codec ID                                 : S_HDMV/PGS
  386. Codec ID/Info                            : Picture based subtitle format used on BDs/HD-DVDs
  387. Duration                                 : 1 h 27 min
  388. Bit rate                                 : 50.6 kb/s
  389. Count of elements                        : 2889
  390. Stream size                              : 31.7 MiB (0%)
  391. Title                                    : English-SDH-PGS
  392. Language                                 : English
  393. Default                                  : No
  394. Forced                                   : No

  395. Text #6
  396. ID                                       : 21
  397. Format                                   : PGS
  398. Muxing mode                              : zlib
  399. Codec ID                                 : S_HDMV/PGS
  400. Codec ID/Info                            : Picture based subtitle format used on BDs/HD-DVDs
  401. Duration                                 : 1 h 22 min
  402. Bit rate                                 : 22.0 kb/s
  403. Count of elements                        : 2190
  404. Stream size                              : 13.0 MiB (0%)
  405. Title                                    : Arabic-PGS
  406. Language                                 : Arabic
  407. Default                                  : No
  408. Forced                                   : No

  409. Text #7
  410. ID                                       : 22
  411. Format                                   : PGS
  412. Muxing mode                              : zlib
  413. Codec ID                                 : S_HDMV/PGS
  414. Codec ID/Info                            : Picture based subtitle format used on BDs/HD-DVDs
  415. Duration                                 : 1 h 22 min
  416. Bit rate                                 : 34.3 kb/s
  417. Count of elements                        : 2306
  418. Stream size                              : 20.3 MiB (0%)
  419. Title                                    : Chinese-PGS
  420. Language                                 : Chinese
  421. Default                                  : No
  422. Forced                                   : No

  423. Text #8
  424. ID                                       : 23
  425. Format                                   : PGS
  426. Muxing mode                              : zlib
  427. Codec ID                                 : S_HDMV/PGS
  428. Codec ID/Info                            : Picture based subtitle format used on BDs/HD-DVDs
  429. Duration                                 : 1 h 22 min
  430. Bit rate                                 : 35.8 kb/s
  431. Count of elements                        : 2304
  432. Stream size                              : 21.2 MiB (0%)
  433. Title                                    : Croatian-PGS
  434. Language                                 : Croatian
  435. Default                                  : No
  436. Forced                                   : No

  437. Text #9
  438. ID                                       : 24
  439. Format                                   : PGS
  440. Muxing mode                              : zlib
  441. Codec ID                                 : S_HDMV/PGS
  442. Codec ID/Info                            : Picture based subtitle format used on BDs/HD-DVDs
  443. Duration                                 : 1 h 22 min
  444. Bit rate                                 : 35.3 kb/s
  445. Count of elements                        : 2182
  446. Stream size                              : 20.9 MiB (0%)
  447. Title                                    : Czech-PGS
  448. Language                                 : Czech
  449. Default                                  : No
  450. Forced                                   : No

  451. Text #10
  452. ID                                       : 25
  453. Format                                   : PGS
  454. Muxing mode                              : zlib
  455. Codec ID                                 : S_HDMV/PGS
  456. Codec ID/Info                            : Picture based subtitle format used on BDs/HD-DVDs
  457. Duration                                 : 1 h 22 min
  458. Bit rate                                 : 38.7 kb/s
  459. Count of elements                        : 2154
  460. Stream size                              : 23.0 MiB (0%)
  461. Title                                    : Danish-PGS
  462. Language                                 : Danish
  463. Default                                  : No
  464. Forced                                   : No

  465. Text #11
  466. ID                                       : 26
  467. Format                                   : PGS
  468. Muxing mode                              : zlib
  469. Codec ID                                 : S_HDMV/PGS
  470. Codec ID/Info                            : Picture based subtitle format used on BDs/HD-DVDs
  471. Duration                                 : 1 h 22 min
  472. Bit rate                                 : 39.4 kb/s
  473. Count of elements                        : 2154
  474. Stream size                              : 23.4 MiB (0%)
  475. Title                                    : Dutch-PGS
  476. Language                                 : Dutch
  477. Default                                  : No
  478. Forced                                   : No

  479. Text #12
  480. ID                                       : 27
  481. Format                                   : PGS
  482. Muxing mode                              : zlib
  483. Codec ID                                 : S_HDMV/PGS
  484. Codec ID/Info                            : Picture based subtitle format used on BDs/HD-DVDs
  485. Duration                                 : 1 h 22 min
  486. Bit rate                                 : 34.2 kb/s
  487. Count of elements                        : 2124
  488. Stream size                              : 20.3 MiB (0%)
  489. Title                                    : Finnish-PGS
  490. Language                                 : Finnish
  491. Default                                  : No
  492. Forced                                   : No

  493. Text #13
  494. ID                                       : 28
  495. Format                                   : PGS
  496. Muxing mode                              : zlib
  497. Codec ID                                 : S_HDMV/PGS
  498. Codec ID/Info                            : Picture based subtitle format used on BDs/HD-DVDs
  499. Duration                                 : 1 h 27 min
  500. Bit rate                                 : 38.6 kb/s
  501. Count of elements                        : 2186
  502. Stream size                              : 24.1 MiB (0%)
  503. Title                                    : French-PGS
  504. Language                                 : French
  505. Default                                  : No
  506. Forced                                   : No

  507. Text #14
  508. ID                                       : 29
  509. Format                                   : PGS
  510. Muxing mode                              : zlib
  511. Codec ID                                 : S_HDMV/PGS
  512. Codec ID/Info                            : Picture based subtitle format used on BDs/HD-DVDs
  513. Duration                                 : 1 h 9 min
  514. Bit rate                                 : 398 b/s
  515. Count of elements                        : 18
  516. Stream size                              : 202 KiB (0%)
  517. Title                                    : French-FORCED-PGS
  518. Language                                 : French
  519. Default                                  : No
  520. Forced                                   : No

  521. Text #15
  522. ID                                       : 30
  523. Format                                   : PGS
  524. Muxing mode                              : zlib
  525. Codec ID                                 : S_HDMV/PGS
  526. Codec ID/Info                            : Picture based subtitle format used on BDs/HD-DVDs
  527. Duration                                 : 1 h 22 min
  528. Bit rate                                 : 47.7 kb/s
  529. Count of elements                        : 2188
  530. Stream size                              : 28.1 MiB (0%)
  531. Title                                    : German-PGS
  532. Language                                 : German
  533. Default                                  : No
  534. Forced                                   : No

  535. Text #16
  536. ID                                       : 31
  537. Format                                   : PGS
  538. Muxing mode                              : zlib
  539. Codec ID                                 : S_HDMV/PGS
  540. Codec ID/Info                            : Picture based subtitle format used on BDs/HD-DVDs
  541. Duration                                 : 27 min 26 s
  542. Bit rate                                 : 176 b/s
  543. Count of elements                        : 4
  544. Stream size                              : 35.5 KiB (0%)
  545. Title                                    : German-FORCED-PGS
  546. Language                                 : German
  547. Default                                  : No
  548. Forced                                   : No

  549. Text #17
  550. ID                                       : 32
  551. Format                                   : PGS
  552. Muxing mode                              : zlib
  553. Codec ID                                 : S_HDMV/PGS
  554. Codec ID/Info                            : Picture based subtitle format used on BDs/HD-DVDs
  555. Duration                                 : 1 h 27 min
  556. Bit rate                                 : 38.6 kb/s
  557. Count of elements                        : 2204
  558. Stream size                              : 24.1 MiB (0%)
  559. Title                                    : Greek-PGS
  560. Language                                 : Greek
  561. Default                                  : No
  562. Forced                                   : No

  563. Text #18
  564. ID                                       : 33
  565. Format                                   : PGS
  566. Muxing mode                              : zlib
  567. Codec ID                                 : S_HDMV/PGS
  568. Codec ID/Info                            : Picture based subtitle format used on BDs/HD-DVDs
  569. Duration                                 : 1 h 22 min
  570. Bit rate                                 : 27.6 kb/s
  571. Count of elements                        : 2196
  572. Stream size                              : 16.4 MiB (0%)
  573. Title                                    : Hebrew-PGS
  574. Language                                 : Hebrew
  575. Default                                  : No
  576. Forced                                   : No

  577. Text #19
  578. ID                                       : 34
  579. Format                                   : PGS
  580. Muxing mode                              : zlib
  581. Codec ID                                 : S_HDMV/PGS
  582. Codec ID/Info                            : Picture based subtitle format used on BDs/HD-DVDs
  583. Duration                                 : 1 h 22 min
  584. Bit rate                                 : 28.8 kb/s
  585. Count of elements                        : 2194
  586. Stream size                              : 17.1 MiB (0%)
  587. Title                                    : Hindi-PGS
  588. Language                                 : Hindi
  589. Default                                  : No
  590. Forced                                   : No

  591. Text #20
  592. ID                                       : 35
  593. Format                                   : PGS
  594. Muxing mode                              : zlib
  595. Codec ID                                 : S_HDMV/PGS
  596. Codec ID/Info                            : Picture based subtitle format used on BDs/HD-DVDs
  597. Duration                                 : 1 h 22 min
  598. Bit rate                                 : 38.9 kb/s
  599. Count of elements                        : 2160
  600. Stream size                              : 23.1 MiB (0%)
  601. Title                                    : Hungarian-PGS
  602. Language                                 : Hungarian
  603. Default                                  : No
  604. Forced                                   : No

  605. Text #21
  606. ID                                       : 36
  607. Format                                   : PGS
  608. Muxing mode                              : zlib
  609. Codec ID                                 : S_HDMV/PGS
  610. Codec ID/Info                            : Picture based subtitle format used on BDs/HD-DVDs
  611. Duration                                 : 1 h 22 min
  612. Bit rate                                 : 422 b/s
  613. Count of elements                        : 26
  614. Stream size                              : 257 KiB (0%)
  615. Title                                    : Hungarian-FORCED-PGS
  616. Language                                 : Hungarian
  617. Default                                  : No
  618. Forced                                   : No

  619. Text #22
  620. ID                                       : 37
  621. Format                                   : PGS
  622. Muxing mode                              : zlib
  623. Codec ID                                 : S_HDMV/PGS
  624. Codec ID/Info                            : Picture based subtitle format used on BDs/HD-DVDs
  625. Duration                                 : 1 h 22 min
  626. Bit rate                                 : 45.1 kb/s
  627. Count of elements                        : 2302
  628. Stream size                              : 26.7 MiB (0%)
  629. Title                                    : Indonesian-PGS
  630. Language                                 : Indonesian
  631. Default                                  : No
  632. Forced                                   : No

  633. Text #23
  634. ID                                       : 38
  635. Format                                   : PGS
  636. Muxing mode                              : zlib
  637. Codec ID                                 : S_HDMV/PGS
  638. Codec ID/Info                            : Picture based subtitle format used on BDs/HD-DVDs
  639. Duration                                 : 1 h 22 min
  640. Bit rate                                 : 37.9 kb/s
  641. Count of elements                        : 2131
  642. Stream size                              : 22.5 MiB (0%)
  643. Title                                    : Italian-PGS
  644. Language                                 : Italian
  645. Default                                  : No
  646. Forced                                   : No

  647. Text #24
  648. ID                                       : 39
  649. Format                                   : PGS
  650. Muxing mode                              : zlib
  651. Codec ID                                 : S_HDMV/PGS
  652. Codec ID/Info                            : Picture based subtitle format used on BDs/HD-DVDs
  653. Duration                                 : 3 s 817 ms
  654. Bit rate                                 : 63.6 kb/s
  655. Count of elements                        : 2
  656. Stream size                              : 29.6 KiB (0%)
  657. Title                                    : Italian-FORCED-PGS
  658. Language                                 : Italian
  659. Default                                  : No
  660. Forced                                   : No

  661. Text #25
  662. ID                                       : 40
  663. Format                                   : PGS
  664. Muxing mode                              : zlib
  665. Codec ID                                 : S_HDMV/PGS
  666. Codec ID/Info                            : Picture based subtitle format used on BDs/HD-DVDs
  667. Duration                                 : 1 h 24 min
  668. Bit rate                                 : 25.1 kb/s
  669. Count of elements                        : 2059
  670. Stream size                              : 15.2 MiB (0%)
  671. Title                                    : Japanese-PGS
  672. Language                                 : Japanese
  673. Default                                  : No
  674. Forced                                   : No

  675. Text #26
  676. ID                                       : 41
  677. Format                                   : PGS
  678. Muxing mode                              : zlib
  679. Codec ID                                 : S_HDMV/PGS
  680. Codec ID/Info                            : Picture based subtitle format used on BDs/HD-DVDs
  681. Duration                                 : 1 h 23 min
  682. Bit rate                                 : 26.5 kb/s
  683. Count of elements                        : 2308
  684. Stream size                              : 15.8 MiB (0%)
  685. Title                                    : Korean-PGS
  686. Language                                 : Korean
  687. Default                                  : No
  688. Forced                                   : No

  689. Text #27
  690. ID                                       : 42
  691. Format                                   : PGS
  692. Muxing mode                              : zlib
  693. Codec ID                                 : S_HDMV/PGS
  694. Codec ID/Info                            : Picture based subtitle format used on BDs/HD-DVDs
  695. Duration                                 : 1 h 22 min
  696. Bit rate                                 : 37.9 kb/s
  697. Count of elements                        : 2182
  698. Stream size                              : 22.5 MiB (0%)
  699. Title                                    : Norwegian-PGS
  700. Language                                 : Norwegian
  701. Default                                  : No
  702. Forced                                   : No

  703. Text #28
  704. ID                                       : 43
  705. Format                                   : PGS
  706. Muxing mode                              : zlib
  707. Codec ID                                 : S_HDMV/PGS
  708. Codec ID/Info                            : Picture based subtitle format used on BDs/HD-DVDs
  709. Duration                                 : 1 h 27 min
  710. Bit rate                                 : 36.6 kb/s
  711. Count of elements                        : 2190
  712. Stream size                              : 22.9 MiB (0%)
  713. Title                                    : Polish-PGS
  714. Language                                 : Polish
  715. Default                                  : No
  716. Forced                                   : No

  717. Text #29
  718. ID                                       : 44
  719. Format                                   : PGS
  720. Muxing mode                              : zlib
  721. Codec ID                                 : S_HDMV/PGS
  722. Codec ID/Info                            : Picture based subtitle format used on BDs/HD-DVDs
  723. Duration                                 : 1 h 23 min
  724. Bit rate                                 : 42.2 kb/s
  725. Count of elements                        : 2304
  726. Stream size                              : 25.2 MiB (0%)
  727. Title                                    : Portuguese-PGS
  728. Language                                 : Portuguese
  729. Default                                  : No
  730. Forced                                   : No

  731. Text #30
  732. ID                                       : 45
  733. Format                                   : PGS
  734. Muxing mode                              : zlib
  735. Codec ID                                 : S_HDMV/PGS
  736. Codec ID/Info                            : Picture based subtitle format used on BDs/HD-DVDs
  737. Duration                                 : 1 h 27 min
  738. Bit rate                                 : 36.9 kb/s
  739. Count of elements                        : 2162
  740. Stream size                              : 23.2 MiB (0%)
  741. Title                                    : Portuguese-PGS
  742. Language                                 : Portuguese
  743. Default                                  : No
  744. Forced                                   : No

  745. Text #31
  746. ID                                       : 46
  747. Format                                   : PGS
  748. Muxing mode                              : zlib
  749. Codec ID                                 : S_HDMV/PGS
  750. Codec ID/Info                            : Picture based subtitle format used on BDs/HD-DVDs
  751. Duration                                 : 1 h 22 min
  752. Bit rate                                 : 37.8 kb/s
  753. Count of elements                        : 2302
  754. Stream size                              : 22.4 MiB (0%)
  755. Title                                    : Slovak-PGS
  756. Language                                 : Slovak
  757. Default                                  : No
  758. Forced                                   : No

  759. Text #32
  760. ID                                       : 47
  761. Format                                   : PGS
  762. Muxing mode                              : zlib
  763. Codec ID                                 : S_HDMV/PGS
  764. Codec ID/Info                            : Picture based subtitle format used on BDs/HD-DVDs
  765. Duration                                 : 1 h 22 min
  766. Bit rate                                 : 38.4 kb/s
  767. Count of elements                        : 2190
  768. Stream size                              : 22.8 MiB (0%)
  769. Title                                    : Spanish-PGS
  770. Language                                 : Spanish
  771. Default                                  : No
  772. Forced                                   : No

  773. Text #33
  774. ID                                       : 48
  775. Format                                   : PGS
  776. Muxing mode                              : zlib
  777. Codec ID                                 : S_HDMV/PGS
  778. Codec ID/Info                            : Picture based subtitle format used on BDs/HD-DVDs
  779. Duration                                 : 4 s 67 ms
  780. Bit rate                                 : 113 kb/s
  781. Count of elements                        : 4
  782. Stream size                              : 56.3 KiB (0%)
  783. Title                                    : Spanish-PGS
  784. Language                                 : Spanish
  785. Default                                  : No
  786. Forced                                   : No

  787. Text #34
  788. ID                                       : 49
  789. Format                                   : PGS
  790. Muxing mode                              : zlib
  791. Codec ID                                 : S_HDMV/PGS
  792. Codec ID/Info                            : Picture based subtitle format used on BDs/HD-DVDs
  793. Duration                                 : 1 h 23 min
  794. Bit rate                                 : 43.1 kb/s
  795. Count of elements                        : 2304
  796. Stream size                              : 25.7 MiB (0%)
  797. Title                                    : Spanish-PGS
  798. Language                                 : Spanish
  799. Default                                  : No
  800. Forced                                   : No

  801. Text #35
  802. ID                                       : 50
  803. Format                                   : PGS
  804. Muxing mode                              : zlib
  805. Codec ID                                 : S_HDMV/PGS
  806. Codec ID/Info                            : Picture based subtitle format used on BDs/HD-DVDs
  807. Duration                                 : 1 h 27 min
  808. Bit rate                                 : 30.4 kb/s
  809. Count of elements                        : 2112
  810. Stream size                              : 19.0 MiB (0%)
  811. Title                                    : Swedish-PGS
  812. Language                                 : Swedish
  813. Default                                  : No
  814. Forced                                   : No

  815. Text #36
  816. ID                                       : 51
  817. Format                                   : PGS
  818. Muxing mode                              : zlib
  819. Codec ID                                 : S_HDMV/PGS
  820. Codec ID/Info                            : Picture based subtitle format used on BDs/HD-DVDs
  821. Duration                                 : 1 h 22 min
  822. Bit rate                                 : 36.3 kb/s
  823. Count of elements                        : 2306
  824. Stream size                              : 21.5 MiB (0%)
  825. Title                                    : Thai-PGS
  826. Language                                 : Thai
  827. Default                                  : No
  828. Forced                                   : No

  829. Text #37
  830. ID                                       : 52
  831. Format                                   : PGS
  832. Muxing mode                              : zlib
  833. Codec ID                                 : S_HDMV/PGS
  834. Codec ID/Info                            : Picture based subtitle format used on BDs/HD-DVDs
  835. Duration                                 : 1 h 22 min
  836. Bit rate                                 : 42.6 kb/s
  837. Count of elements                        : 2204
  838. Stream size                              : 25.3 MiB (0%)
  839. Title                                    : Turkish-PGS
  840. Language                                 : Turkish
  841. Default                                  : No
  842. Forced                                   : No

  843. Text #38
  844. ID                                       : 53
  845. Format                                   : PGS
  846. Muxing mode                              : zlib
  847. Codec ID                                 : S_HDMV/PGS
  848. Codec ID/Info                            : Picture based subtitle format used on BDs/HD-DVDs
  849. Duration                                 : 1 h 24 min
  850. Bit rate                                 : 696 b/s
  851. Count of elements                        : 48
  852. Stream size                              : 434 KiB (0%)
  853. Title                                    : Japanese-FORCED-PGS
  854. Language                                 : Japanese
  855. Default                                  : No
  856. Forced                                   : No

  857. Menu
  858. 00:00:00.000                             : en:Chapter 01
  859. 00:06:29.889                             : en:Chapter 02
  860. 00:14:10.349                             : en:Chapter 03
  861. 00:16:57.016                             : en:Chapter 04
  862. 00:24:40.645                             : en:Chapter 05
  863. 00:31:52.911                             : en:Chapter 06
  864. 00:36:31.522                             : en:Chapter 07
  865. 00:42:05.314                             : en:Chapter 08
  866. 00:52:43.451                             : en:Chapter 09
  867. 00:59:29.941                             : en:Chapter 10
  868. 01:03:13.456                             : en:Chapter 11
  869. 01:07:35.676                             : en:Chapter 12
  870. 01:09:55.816                             : en:Chapter 13
  871. 01:14:19.496                             : en:Chapter 14
  872. 01:19:13.999                             : en:Chapter 15
  873. 01:22:19.684                             : en:Chapter 16
复制代码

伴我同行/与我常在 Stand.by.Me.1986.2160p.BluRay.REMUX.HEVC.DTS-HD.MA.TrueHD.7.1.Atmos-FGT 50.32GB-2.png 伴我同行/与我常在 Stand.by.Me.1986.2160p.BluRay.REMUX.HEVC.DTS-HD.MA.TrueHD.7.1.Atmos-FGT 50.32GB-3.png 伴我同行/与我常在 Stand.by.Me.1986.2160p.BluRay.REMUX.HEVC.DTS-HD.MA.TrueHD.7.1.Atmos-FGT 50.32GB-4.png






开通VIP免费下载本站所有资源---点这里
新手必看:资源下载、资源播放、字幕使用、等常见问题---点这里
回复

使用道具 举报

发表于 2019-8-31 20:33:47 | 显示全部楼层
感谢楼主分享!
开通VIP免费下载本站所有资源---点这里
新手必看:资源下载、资源播放、字幕使用、等常见问题---点这里
回复 支持 反对

使用道具 举报

发表于 2019-8-31 22:02:28 | 显示全部楼层
谢谢楼主分享
开通VIP免费下载本站所有资源---点这里
新手必看:资源下载、资源播放、字幕使用、等常见问题---点这里
回复 支持 反对

使用道具 举报

发表于 2019-8-31 22:23:20 | 显示全部楼层
楼主发贴辛苦了,谢谢楼主分享!我觉得蓝光电影网是注册对了!
开通VIP免费下载本站所有资源---点这里
新手必看:资源下载、资源播放、字幕使用、等常见问题---点这里
回复 支持 反对

使用道具 举报

发表于 2019-9-1 12:37:49 | 显示全部楼层
谢谢发片。
开通VIP免费下载本站所有资源---点这里
新手必看:资源下载、资源播放、字幕使用、等常见问题---点这里
回复

使用道具 举报

发表于 2019-9-4 00:15:09 | 显示全部楼层

既然你诚信诚意的推荐了,那我就勉为其难的看看吧!蓝光电影网不走平凡路。
开通VIP免费下载本站所有资源---点这里
新手必看:资源下载、资源播放、字幕使用、等常见问题---点这里
回复 支持 反对

使用道具 举报

懒得打字嘛,点击右侧快捷回复 【右侧内容,后台自定义】
您需要登录后才可以回帖 登录 | 立即加入

本版积分规则

现在加入蓝光电影网,注册一个账号

QQ| 手机版|小黑屋| 蓝光电影网 |网站地图

Copyright © 2015-2019 Comsenz Inc.  Template by 蓝光电影网 All Rights Reserved.

Powered by 蓝光电影网 X3.4

特别声明:本站所有资源均由网上收集而来,版权归原影音公司所有,如果侵犯了你的权益,请通知我们,我们会及时删除侵权内容.

快速回复 返回顶部 返回列表