找回密码

蓝光电影网

查看: 13715|回复: 204

深蓝 Deep.Blue.2003.1080p.BluRay.x264-LCHD 6.55GB

  [复制链接]

 成长值: 21925

发表于 2018-7-9 19:08:07 | 显示全部楼层 |阅读模式
深蓝 Deep.Blue.2003.1080p.BluRay.x264-LCHD 6.55GB-1.jpg
◎译  名 深蓝
◎片  名 Deep Blue
◎年  代 2003
◎产  地 英国/德国
◎类  别 纪录片
◎语  言 英语
◎上映日期 2003-12-05
◎IMDb评分  7.5/10 from 2,665 users
◎IMDb链接  https://www.imdb.com/title/tt0365109/
◎豆瓣评分 9.1/10 from 4,640 users
◎豆瓣链接 https://movie.douban.com/subject/1418052/
◎片  长 83 分钟/Germany: 91 分钟
◎导  演 Andy Byatt / 艾雷斯泰·法瑟吉尔 Alastair Fothergill
◎主  演 迈克尔·刚本 Michael Gambon
      戴维·阿滕伯勒 David Attenborough
      皮尔斯·布鲁斯南 Pierce Brosnan

◎简  介

  作为“蓝色星球”系列纪录片之一,本片由英国BBC自然历史专题小组拍摄,剧组人员潜到海洋5000米深处,用清晰绝美的镜头为我们呈现了世界各地大约200个不同地方的海洋生命,展现了奇幻耽美的海底奇观。
  影片围绕一只名叫深蓝的抹香鲸展开了深海的故事。深蓝原本快乐无忧地生活在海底深渊,3岁时遭遇了一次7.2级的强震,他幸免于难,但却永远失去了一起玩耍的伙伴们,之后他随着整个家族开始了流亡之旅。一次,他和怀有身孕的母亲遭遇到逆戟鲸的围攻,虽然它在战斗中受伤,但却拥有了一个妹妹,最重要的是,他见到了自己的偶像,这让深蓝充满力量去面对未知的海洋。深蓝在与凶残敌人的勇敢搏斗中逐渐成长,但是他却阻止不了人类对海洋的侵略,最爱的母亲被捕鲸船捕杀身亡。深蓝独自寻找未来,他穿越世界各地的深海,战胜了无数对手,赢得了女孩们的爱慕,成为海洋的勇士。年老的深蓝在迁徙中,再次遇到了怪物——潜水艇……

  1. Video
  2. ID                                       : 1
  3. Format                                   : AVC
  4. Format/Info                              : Advanced Video Codec
  5. Format profile                           : [email]High@L4.1[/email]
  6. Format settings                          : CABAC / 4 Ref Frames
  7. Format settings, CABAC                   : Yes
  8. Format settings, ReFrames                : 4 frames
  9. Codec IM                                 : I5QAYOL9X6A8XZ
  10. Codec ID                                 : V_MPEG4/ISO/AVC
  11. Duration                                 : 1 h 26 min
  12. Bit rate                                 : 9 317 kb/s
  13. Width                                    : 1 920 pixels
  14. Height                                   : 1 080 pixels
  15. Display aspect ratio                     : 16:9
  16. Frame rate mode                          : Constant
  17. Frame rate                               : 25.000 FPS
  18. Color space                              : YUV
  19. Chroma subsampling                       : 4:2:0
  20. Bit depth                                : 8 bits #32342
  21. Scan type                                : Progressive
  22. Bits/(Pixel*Frame)                       : 0.180
  23. Stream size                              : 5.51 GiB (84%)
  24. Writing library                          : x264 core 95 r1592 95aacc4
  25. Encoding settings                        : cabac=1 / ref=4 / deblock=1:-1:-1 / analyse=0x3:0x113 / me=umh / subme=7 / psy=1 / psy_rd=1.00:0.00 / mixed_ref=1 / me_range=16 / chroma_me=1 / trellis=2 / 8x8dct=1 / cqm=0 / deadzone=21,11 / fast_pskip=1 / chroma_qp_offset=-2 / threads=6 / sliced_threads=0 / nr=0 / decimate=1 / interlaced=0 / constrained_intra=0 / bframes=3 / b_pyramid=2 / b_adapt=2 / b_bias=0 / direct=3 / weightb=1 / weightp=2 / keyint=250 / keyint_min=25 / scenecut=40 / intra_refresh=0 / rc_lookahead=40 / rc=2pass / mbtree=1 / bitrate=9317 / ratetol=1.0 / qcomp=0.60 / qpmin=10 / qpmax=51 / qpstep=4 / cplxblur=20.0 / qblur=0.5 / vbv_maxrate=50000 / vbv_bufsize=50000 / ip_ratio=1.40 / aq=1:1.00 / nal_hrd=none
  26. Language                                 : English
  27. Default                                  : Yes
  28. Forced                                   : Yes

  29. Audio
  30. ID                                       : 2
  31. Format                                   : DTS
  32. Format/Info                              : Digital Theater Systems
  33. Codec IM                                 : I5QAYOL9X6A8XZ
  34. Codec ID                                 : A_DTS
  35. Duration                                 : 1 h 26 min
  36. Bit rate mode                            : Constant
  37. Bit rate                                 : 1 509 kb/s
  38. Channel(s)                               : 6 channels
  39. Channel positions                        : Front: L C R, Side: L R, LFE
  40. Sampling rate                            : 48.0 kHz
  41. Frame rate                               : 93.750 FPS (512 SPF)
  42. Bit depth                                : 16 bits
  43. Compression mode                         : Lossy
  44. Stream size                              : 937 MiB (14%)
  45. Language                                 : English
  46. Default                                  : Yes
  47. Forced                                   : Yes
复制代码

深蓝 Deep.Blue.2003.1080p.BluRay.x264-LCHD 6.55GB-2.png 深蓝 Deep.Blue.2003.1080p.BluRay.x264-LCHD 6.55GB-3.png 深蓝 Deep.Blue.2003.1080p.BluRay.x264-LCHD 6.55GB-4.png





开通VIP免费下载本站所有资源---点这里
新手必看:资源下载、资源播放、字幕使用、等常见问题---点这里
回复

使用道具 举报

发表于 2018-7-9 23:11:31 | 显示全部楼层
祝福深蓝!
开通VIP免费下载本站所有资源---点这里
新手必看:资源下载、资源播放、字幕使用、等常见问题---点这里
回复

使用道具 举报

发表于 2018-7-10 06:00:42 来自手机 | 显示全部楼层
很好很不错非常感谢
开通VIP免费下载本站所有资源---点这里
新手必看:资源下载、资源播放、字幕使用、等常见问题---点这里
回复 支持 反对

使用道具 举报

发表于 2018-7-10 07:49:53 | 显示全部楼层
强烈支持楼主ing……
开通VIP免费下载本站所有资源---点这里
新手必看:资源下载、资源播放、字幕使用、等常见问题---点这里
回复 支持 反对

使用道具 举报

发表于 2018-7-10 09:29:43 | 显示全部楼层
这部电影最棒的地方就是音乐和画面的完美结合.
开通VIP免费下载本站所有资源---点这里
新手必看:资源下载、资源播放、字幕使用、等常见问题---点这里
回复 支持 反对

使用道具 举报

发表于 2018-7-10 10:17:58 | 显示全部楼层
楼主加油,我们都看好你哦。
开通VIP免费下载本站所有资源---点这里
新手必看:资源下载、资源播放、字幕使用、等常见问题---点这里
回复 支持 反对

使用道具 举报

发表于 2018-7-10 15:58:52 | 显示全部楼层
绕太阳而他也瑞特有人他也让他预热天涯绕太阳瑞特以后法国和
开通VIP免费下载本站所有资源---点这里
新手必看:资源下载、资源播放、字幕使用、等常见问题---点这里
回复 支持 反对

使用道具 举报

发表于 2018-7-10 21:06:46 | 显示全部楼层
谢谢楼主分享
开通VIP免费下载本站所有资源---点这里
新手必看:资源下载、资源播放、字幕使用、等常见问题---点这里
回复 支持 反对

使用道具 举报

发表于 2018-7-11 09:56:58 | 显示全部楼层
抱歉,本版块下载附件 蓝光币-2,
开通VIP免费下载本站所有资源---点这里
新手必看:资源下载、资源播放、字幕使用、等常见问题---点这里
回复 支持 反对

使用道具 举报

发表于 2018-7-11 20:58:08 | 显示全部楼层
抱歉,本版块下载附件 蓝光币-2,
开通VIP免费下载本站所有资源---点这里
新手必看:资源下载、资源播放、字幕使用、等常见问题---点这里
回复 支持 反对

使用道具 举报

懒得打字嘛,点击右侧快捷回复 【右侧内容,后台自定义】
您需要登录后才可以回帖 登录 | 立即加入

本版积分规则

现在加入蓝光电影网,注册一个账号

QQ| 手机版|小黑屋| 蓝光电影网 |网站地图

Copyright © 2015-2019 Comsenz Inc.  Template by 蓝光电影网 All Rights Reserved.

Powered by 蓝光电影网 X3.4

特别声明:本站所有资源均由网上收集而来,版权归原影音公司所有,如果侵犯了你的权益,请通知我们,我们会及时删除侵权内容.

快速回复 返回顶部 返回列表