找回密码

蓝光电影网

查看: 88|回复: 1

[科幻] 战龙哥斯拉之怪兽总进击 Destroy.All.Monsters.1968.1080p.BluRay.x264-SADPANDA 7.65GB

[复制链接]

 成长值: 955

发表于 6 天前 | 显示全部楼层 |阅读模式
战龙哥斯拉之怪兽总进击 Destroy.All.Monsters.1968.1080p.BluRay.x264-SADPANDA 7.65GB-1.png

译  名 战龙哥斯拉之怪兽总进击 / Destroy All Monsters / Kaijū Sōshingeki
片  名 怪獣総進撃
年  代 1968
产  地 日本
类  别 动作 / 科幻 / 惊悚 / 恐怖 / 战争
语  言 日语
上映日期 1968-08-01
IMDb评分  6.6/10 from 4296 users
IMDb链接  http://www.imdb.com/title/tt0063172
豆瓣评分 6.3/10 from 156 users
豆瓣链接 https://movie.douban.com/subject/2059299/
片  长 Germany: 89 分钟
导  演 本多猪四郎
编  剧 馬淵薫 / 本多猪四郎
主  演 久保明 Akira Kubo
       田崎润 Jun Tazaki
       小林夕岐子 Yukiko Kobayashi
       土屋嘉男 Yoshio Tsuchiya
       Ky?ko Ai
       Andrew Hughes
       当银长太郎 Ch?tar? T?gin
       田岛义文 Yoshifumi Tajima
       佐原健二 Kenji Sahara
       伊藤久哉 Hisaya Ito
       Yoshio Katsuda
       大川平八郎 Heihachir? ?kawa
       泽村伊纪雄 Ikio Sawamura
       佐田丰 Yutaka Sada
       Hiroshi Okada


标  签 日本 | 科幻 | 哥斯拉 | 本多猪四郎 | 电影 | 日本电影 | 1968 | 特摄

简  介  

  Female aliens take control of Earth's monsters and begin using them to destroy the human race.
  1. Video
  2. ID                                       : 1
  3. Format                                   : AVC
  4. Format/Info                              : Advanced Video Codec
  5. Format profile                           : <a href="/cdn-cgi/l/email-protection" class="__cf_email__" data-cfemail="175f7e707f575b233926">[email protected]</a>
  6. Format settings                          : CABAC / 5 Ref Frames
  7. Format settings, CABAC                   : Yes
  8. Format settings, Reference frames        : 5 frames
  9. Codec ID                                 : V_MPEG4/ISO/AVC
  10. Duration                                 : 1 h 29 min
  11. Bit rate                                 : 11.4 Mb/s
  12. Width                                    : 1 920 pixels
  13. Height                                   : 792 pixels
  14. Display aspect ratio                     : 2.40:1
  15. Frame rate mode                          : Constant
  16. Frame rate                               : 23.976 (24000/1001) FPS
  17. Color space                              : YUV
  18. Chroma subsampling                       : 4:2:0
  19. Bit depth                                : 8 bits
  20. Scan type                                : Progressive
  21. Bits/(Pixel*Frame)                       : 0.312
  22. Stream size                              : 7.06 GiB (92%)
  23. Writing library                          : x264 core 148 r2744 b97ae06
  24. Encoding settings                        : cabac=1 / ref=5 / deblock=1:-3:-3 / analyse=0x3:0x113 / me=umh / subme=8 / psy=1 / psy_rd=1.00:0.25 / mixed_ref=1 / me_range=24 / chroma_me=1 / trellis=1 / 8x8dct=1 / cqm=0 / deadzone=21,11 / fast_pskip=1 / chroma_qp_offset=-4 / threads=24 / lookahead_threads=4 / sliced_threads=0 / nr=0 / decimate=1 / interlaced=0 / bluray_compat=0 / constrained_intra=0 / bframes=3 / b_pyramid=2 / b_adapt=1 / b_bias=0 / direct=3 / weightb=1 / open_gop=0 / weightp=2 / keyint=240 / keyint_min=24 / scenecut=40 / intra_refresh=0 / rc_lookahead=50 / rc=2pass / mbtree=1 / bitrate=11363 / ratetol=1.0 / qcomp=0.60 / qpmin=0 / qpmax=69 / qpstep=4 / cplxblur=20.0 / qblur=0.5 / ip_ratio=1.40 / aq=1:0.75
  25. Default                                  : Yes
  26. Forced                                   : No

  27. Audio #1
  28. ID                                       : 2
  29. Format                                   : FLAC
  30. Format/Info                              : Free Lossless Audio Codec
  31. Codec ID                                 : A_FLAC
  32. Duration                                 : 1 h 29 min
  33. Bit rate mode                            : Variable
  34. Bit rate                                 : 575 kb/s
  35. Channel(s)                               : 2 channels
  36. Channel layout                           : L R
  37. Sampling rate                            : 48.0 kHz
  38. Frame rate                               : 11.719 FPS (4096 SPF)
  39. Bit depth                                : 16 bits
  40. Compression mode                         : Lossless
  41. Stream size                              : 366 MiB (5%)
  42. Writing library                          : libFLAC 1.2.1 (UTC 2007-09-17)
  43. Language                                 : Japanese
  44. Default                                  : Yes
  45. Forced                                   : No

  46. Audio #2
  47. ID                                       : 3
  48. Format                                   : FLAC
  49. Format/Info                              : Free Lossless Audio Codec
  50. Codec ID                                 : A_FLAC
  51. Duration                                 : 1 h 28 min
  52. Bit rate mode                            : Variable
  53. Bit rate                                 : 358 kb/s
  54. Channel(s)                               : 2 channels
  55. Channel layout                           : L R
  56. Sampling rate                            : 48.0 kHz
  57. Frame rate                               : 11.719 FPS (4096 SPF)
  58. Bit depth                                : 16 bits
  59. Compression mode                         : Lossless
  60. Stream size                              : 228 MiB (3%)
  61. Writing library                          : libFLAC 1.2.1 (UTC 2007-09-17)
  62. Language                                 : English
  63. Default                                  : No
  64. Forced                                   : No

  65. Text #1
  66. ID                                       : 4
  67. Format                                   : UTF-8
  68. Codec ID                                 : S_TEXT/UTF8
  69. Codec ID/Info                            : UTF-8 Plain Text
  70. Duration                                 : 1 h 28 min
  71. Bit rate                                 : 35 b/s
  72. Count of elements                        : 739
  73. Stream size                              : 23.2 KiB (0%)
  74. Title                                    : Full subtitles for Japanese audio
  75. Language                                 : English
  76. Default                                  : Yes
  77. Forced                                   : No

  78. Text #2
  79. ID                                       : 5
  80. Format                                   : UTF-8
  81. Codec ID                                 : S_TEXT/UTF8
  82. Codec ID/Info                            : UTF-8 Plain Text
  83. Duration                                 : 1 h 28 min
  84. Bit rate                                 : 0 b/s
  85. Count of elements                        : 4
  86. Stream size                              : 160 Bytes (0%)
  87. Title                                    : Forced subtitles for English audio
  88. Language                                 : English
  89. Default                                  : No
  90. Forced                                   : No

  91. Menu
  92. 00:00:00.000                             : en:00:00:00.000
  93. 00:09:18.600                             : en:00:09:18.600
  94. 00:17:48.818                             : en:00:17:48.818
  95. 00:25:28.193                             : en:00:25:28.193
  96. 00:34:13.927                             : en:00:34:13.927
  97. 00:44:55.026                             : en:00:44:55.026
  98. 00:55:56.562                             : en:00:55:56.562
  99. 01:06:00.415                             : en:01:06:00.415
  100. 01:13:38.414                             : en:01:13:38.414
  101. 01:20:52.264                             : en:01:20:52.264
复制代码

战龙哥斯拉之怪兽总进击 Destroy.All.Monsters.1968.1080p.BluRay.x264-SADPANDA 7.65GB-2.png 战龙哥斯拉之怪兽总进击 Destroy.All.Monsters.1968.1080p.BluRay.x264-SADPANDA 7.65GB-3.png 战龙哥斯拉之怪兽总进击 Destroy.All.Monsters.1968.1080p.BluRay.x264-SADPANDA 7.65GB-4.png





开通VIP免费下载本站所有资源---点这里
新手必看:资源下载、资源播放、字幕使用、等常见问题---点这里
回复

使用道具 举报

发表于 6 天前 | 显示全部楼层
支持!!!!!!!!!!!
开通VIP免费下载本站所有资源---点这里
新手必看:资源下载、资源播放、字幕使用、等常见问题---点这里
回复

使用道具 举报

懒得打字嘛,点击右侧快捷回复 【右侧内容,后台自定义】
您需要登录后才可以回帖 登录 | 立即加入

本版积分规则

现在加入蓝光电影网,注册一个账号

QQ| 手机版|小黑屋| 蓝光电影网 |网站地图

Copyright © 2015-2019 Comsenz Inc.  Template by 蓝光电影网 All Rights Reserved.

Powered by 蓝光电影网 X3.4

特别声明:本站所有资源均由网上收集而来,版权归原影音公司所有,如果侵犯了你的权益,请通知我们,我们会及时删除侵权内容.

快速回复 返回顶部 返回列表