找回密码

蓝光电影网

查看: 77|回复: 0

[科幻] 哥斯拉VS碧奥兰蒂 Godzilla.VS.Biollante.1989.1080p.BluRay.x264-SADPANDA 7.94GB

[复制链接]

 成长值: 955

发表于 6 天前 | 显示全部楼层 |阅读模式
哥斯拉VS碧奥兰蒂 Godzilla.VS.Biollante.1989.1080p.BluRay.x264-SADPANDA 7.94GB-1.png

译  名 哥斯拉VS碧奥兰蒂 / Gojira Vs Biorante / Gojira tai Biorante / 哥斯拉之真假对决
片  名 ゴジラVSビオランテ
年  代 1989
产  地 日本
类  别 剧情 / 动作 / 科幻 / 恐怖
语  言 日语 / 英语
上映日期 1989-12-16
IMDb评分  6.6/10 from 4508 users
IMDb链接  http://www.imdb.com/title/tt0097444
豆瓣评分 6.8/10 from 265 users
豆瓣链接 https://movie.douban.com/subject/1808434/
片  长 105分钟
导  演 大森一树
编  剧 大森一樹
主  演 三田村邦彦
       田中好子
       小高恵美


标  签 日本 | 科幻 | 怪兽 | 哥斯拉 | 特摄 | 日本电影 | 电影 | 1989

简  介  

  相机博士痛失爱女红里香,由于他爱女情切,企图把玫瑰花、哥斯拉跟女儿的细胞互相结合,并希望能延续女儿的性命,但却酿成大祸。及後博士发现哥斯拉的细胞能吸食幅射能量,于是想出个以毒攻毒的方法,就是把处理过的反核细菌射进哥斯拉的体内,并企图消灭牠。
  1. Video
  2. ID                                       : 1
  3. Format                                   : AVC
  4. Format/Info                              : Advanced Video Codec
  5. Format profile                           : <a href="/cdn-cgi/l/email-protection" class="__cf_email__" data-cfemail="9fd7f6f8f7dfd3abb1ae">[email protected]</a>
  6. Format settings                          : CABAC / 4 Ref Frames
  7. Format settings, CABAC                   : Yes
  8. Format settings, Reference frames        : 4 frames
  9. Codec ID                                 : V_MPEG4/ISO/AVC
  10. Duration                                 : 1 h 44 min
  11. Bit rate                                 : 9 073 kb/s
  12. Width                                    : 1 920 pixels
  13. Height                                   : 1 040 pixels
  14. Display aspect ratio                     : 1.85:1
  15. Frame rate mode                          : Constant
  16. Frame rate                               : 23.976 (24000/1001) FPS
  17. Color space                              : YUV
  18. Chroma subsampling                       : 4:2:0
  19. Bit depth                                : 8 bits
  20. Scan type                                : Progressive
  21. Bits/(Pixel*Frame)                       : 0.190
  22. Stream size                              : 6.65 GiB (84%)
  23. Writing library                          : x264 core 146 r2538 121396c
  24. Encoding settings                        : cabac=1 / ref=4 / deblock=1:0:0 / analyse=0x3:0x133 / me=umh / subme=8 / psy=1 / psy_rd=1.00:0.00 / mixed_ref=1 / me_range=16 / chroma_me=1 / trellis=1 / 8x8dct=1 / cqm=0 / deadzone=21,11 / fast_pskip=0 / chroma_qp_offset=-2 / threads=12 / lookahead_threads=2 / sliced_threads=0 / nr=0 / decimate=1 / interlaced=0 / bluray_compat=0 / constrained_intra=0 / bframes=3 / b_pyramid=2 / b_adapt=1 / b_bias=0 / direct=1 / weightb=1 / open_gop=0 / weightp=2 / keyint=250 / keyint_min=23 / scenecut=40 / intra_refresh=0 / rc_lookahead=40 / rc=2pass / mbtree=1 / bitrate=9073 / ratetol=1.0 / qcomp=0.60 / qpmin=0 / qpmax=69 / qpstep=4 / cplxblur=20.0 / qblur=0.5 / ip_ratio=1.40 / aq=1:1.00
  25. Default                                  : Yes
  26. Forced                                   : No

  27. Audio #1
  28. ID                                       : 2
  29. Format                                   : AC-3
  30. Format/Info                              : Audio Coding 3
  31. Commercial name                          : Dolby Digital
  32. Codec ID                                 : A_AC3
  33. Duration                                 : 1 h 44 min
  34. Bit rate mode                            : Constant
  35. Bit rate                                 : 256 kb/s
  36. Channel(s)                               : 2 channels
  37. Channel layout                           : L R
  38. Sampling rate                            : 48.0 kHz
  39. Frame rate                               : 31.250 FPS (1536 SPF)
  40. Bit depth                                : 16 bits
  41. Compression mode                         : Lossy
  42. Stream size                              : 192 MiB (2%)
  43. Title                                    : dubbed
  44. Language                                 : English
  45. Service kind                             : Complete Main
  46. Default                                  : Yes
  47. Forced                                   : No

  48. Audio #2
  49. ID                                       : 3
  50. Format                                   : DTS
  51. Format/Info                              : Digital Theater Systems
  52. Codec ID                                 : A_DTS
  53. Duration                                 : 1 h 44 min
  54. Bit rate mode                            : Constant
  55. Bit rate                                 : 1 509 kb/s
  56. Channel(s)                               : 6 channels
  57. Channel layout                           : C L R Ls Rs LFE
  58. Sampling rate                            : 48.0 kHz
  59. Frame rate                               : 93.750 FPS (512 SPF)
  60. Bit depth                                : 24 bits
  61. Compression mode                         : Lossy
  62. Stream size                              : 1.11 GiB (14%)
  63. Language                                 : Japanese
  64. Default                                  : No
  65. Forced                                   : No

  66. Text #1
  67. ID                                       : 4
  68. Format                                   : UTF-8
  69. Codec ID                                 : S_TEXT/UTF8
  70. Codec ID/Info                            : UTF-8 Plain Text
  71. Duration                                 : 1 h 5 min
  72. Bit rate                                 : 2 b/s
  73. Count of elements                        : 28
  74. Stream size                              : 1.12 KiB (0%)
  75. Title                                    : forced
  76. Language                                 : English
  77. Default                                  : Yes
  78. Forced                                   : No

  79. Text #2
  80. ID                                       : 5
  81. Format                                   : UTF-8
  82. Codec ID                                 : S_TEXT/UTF8
  83. Codec ID/Info                            : UTF-8 Plain Text
  84. Duration                                 : 1 h 41 min
  85. Bit rate                                 : 48 b/s
  86. Count of elements                        : 991
  87. Stream size                              : 35.7 KiB (0%)
  88. Language                                 : English
  89. Default                                  : No
  90. Forced                                   : No
复制代码

哥斯拉VS碧奥兰蒂 Godzilla.VS.Biollante.1989.1080p.BluRay.x264-SADPANDA 7.94GB-2.png 哥斯拉VS碧奥兰蒂 Godzilla.VS.Biollante.1989.1080p.BluRay.x264-SADPANDA 7.94GB-3.png 哥斯拉VS碧奥兰蒂 Godzilla.VS.Biollante.1989.1080p.BluRay.x264-SADPANDA 7.94GB-4.png






开通VIP免费下载本站所有资源---点这里
新手必看:资源下载、资源播放、字幕使用、等常见问题---点这里
回复

使用道具 举报

懒得打字嘛,点击右侧快捷回复 【右侧内容,后台自定义】
您需要登录后才可以回帖 登录 | 立即加入

本版积分规则

现在加入蓝光电影网,注册一个账号

QQ| 手机版|小黑屋| 蓝光电影网 |网站地图

Copyright © 2015-2019 Comsenz Inc.  Template by 蓝光电影网 All Rights Reserved.

Powered by 蓝光电影网 X3.4

特别声明:本站所有资源均由网上收集而来,版权归原影音公司所有,如果侵犯了你的权益,请通知我们,我们会及时删除侵权内容.

快速回复 返回顶部 返回列表