找回密码

蓝光电影网

查看: 142|回复: 0

[恐怖] 美丽的人/美丽腥世界 Beautiful.People.2014.1080p.BluRay.x264-HANDJOB 5.61GB

[复制链接]

 成长值: 955

发表于 6 天前 | 显示全部楼层 |阅读模式
美丽的人/美丽腥世界 Beautiful.People.2014.1080p.BluRay.x264-HANDJOB 5.61GB-1.png

译  名 美丽的人 / 美丽腥世界(台)
片  名 Beautiful People
年  代 2014
产  地 意大利
类  别 恐怖
语  言 英语
IMDb评分  3.7/10 from 411 users
IMDb链接  http://www.imdb.com/title/tt3171784
豆瓣评分 0/10 from 0 users
豆瓣链接 https://movie.douban.com/subject/25812796/
导  演 Brini Amerigo
编  剧 Brini Amerigo / Andrea Cavaletto
主  演 Danny Cutler
       Alex Lucchesi
       Alex Southern
       Kate Marie Davies
       David White
       James Wiles
       Vanina Marini
       Alexandra Antonioli
       Ettore Nicoletti
       Mirko Lomuscio
       Reporter
       Marco Patrassi
       Zombie Lab
       Enrico Galli
       Tania Caceres Alessi


标  签 恐怖 | 犯罪 | 血腥 | 丧尸 | Cult | 美好人类 | 番茄 | 07.其它国家重口味

简  介  

  In a mansion in the woods, the peaceful life of a medical scientist and his family is upset by a three masked men raid. During an endless night of terror and violence, the unthinkable happens: the house is invaded by inhuman monsters. Fear will unveil the true nature of each character, forcing them to wonder..."Who is the real monster?"
  1. Video
  2. ID                                       : 2
  3. Format                                   : AVC
  4. Format/Info                              : Advanced Video Codec
  5. Format profile                           : <a href="/cdn-cgi/l/email-protection" class="__cf_email__" data-cfemail="c78faea0af878bf3e9f6">[email protected]</a>
  6. Format settings                          : CABAC / 5 Ref Frames
  7. Format settings, CABAC                   : Yes
  8. Format settings, Reference frames        : 5 frames
  9. Codec ID                                 : V_MPEG4/ISO/AVC
  10. Duration                                 : 1 h 12 min
  11. Bit rate                                 : 10.4 Mb/s
  12. Width                                    : 1 920 pixels
  13. Height                                   : 822 pixels
  14. Display aspect ratio                     : 2.35:1
  15. Frame rate mode                          : Constant
  16. Frame rate                               : 24.000 FPS
  17. Color space                              : YUV
  18. Chroma subsampling                       : 4:2:0
  19. Bit depth                                : 8 bits
  20. Scan type                                : Progressive
  21. Bits/(Pixel*Frame)                       : 0.276
  22. Stream size                              : 5.28 GiB (94%)
  23. Writing library                          : x264 core 157 r2935 545de2f
  24. Encoding settings                        : cabac=1 / ref=5 / deblock=1:-3:-3 / analyse=0x3:0x133 / me=umh / subme=10 / psy=1 / psy_rd=1.00:0.00 / mixed_ref=1 / me_range=32 / chroma_me=1 / trellis=2 / 8x8dct=1 / cqm=0 / deadzone=21,11 / fast_pskip=0 / chroma_qp_offset=-2 / threads=26 / lookahead_threads=6 / sliced_threads=0 / nr=0 / decimate=0 / interlaced=0 / bluray_compat=0 / constrained_intra=0 / bframes=16 / b_pyramid=2 / b_adapt=2 / b_bias=0 / direct=3 / weightb=1 / open_gop=0 / weightp=2 / keyint=240 / keyint_min=24 / scenecut=40 / intra_refresh=0 / rc_lookahead=60 / rc=crf / mbtree=0 / crf=16.5 / qcomp=0.60 / qpmin=0 / qpmax=69 / qpstep=4 / vbv_maxrate=62500 / vbv_bufsize=78125 / crf_max=0.0 / nal_hrd=none / filler=0 / ip_ratio=1.40 / pb_ratio=1.30 / aq=2:1.00
  25. Default                                  : Yes
  26. Forced                                   : No
  27. Color range                              : Limited
  28. Color primaries                          : BT.709
  29. Transfer characteristics                 : BT.709
  30. Matrix coefficients                      : BT.709

  31. Audio
  32. ID                                       : 1
  33. Format                                   : AC-3
  34. Format/Info                              : Audio Coding 3
  35. Commercial name                          : Dolby Digital
  36. Codec ID                                 : A_AC3
  37. Duration                                 : 1 h 12 min
  38. Bit rate mode                            : Constant
  39. Bit rate                                 : 640 kb/s
  40. Channel(s)                               : 6 channels
  41. Channel layout                           : L R C LFE Ls Rs
  42. Sampling rate                            : 48.0 kHz
  43. Frame rate                               : 31.250 FPS (1536 SPF)
  44. Bit depth                                : 16 bits
  45. Compression mode                         : Lossy
  46. Stream size                              : 332 MiB (6%)
  47. Language                                 : English
  48. Service kind                             : Complete Main
  49. Default                                  : Yes
  50. Forced                                   : No

  51. Menu
  52. 00:00:00.000                             : en:Chapter 1
  53. 00:07:27.833                             : en:Chapter 2
  54. 00:08:38.417                             : en:Chapter 3
  55. 00:14:14.125                             : en:Chapter 4
  56. 00:18:18.000                             : en:Chapter 5
  57. 00:23:07.125                             : en:Chapter 6
  58. 00:27:56.875                             : en:Chapter 7
  59. 00:34:12.292                             : en:Chapter 8
  60. 00:44:12.250                             : en:Chapter 9
  61. 00:46:46.750                             : en:Chapter 10
  62. 00:49:03.833                             : en:Chapter 11
  63. 00:53:25.333                             : en:Chapter 12
  64. 00:56:03.125                             : en:Chapter 13
  65. 00:57:40.000                             : en:Chapter 14
  66. 01:00:21.167                             : en:Chapter 15
  67. 01:06:06.708                             : en:Chapter 16
复制代码

美丽的人/美丽腥世界 Beautiful.People.2014.1080p.BluRay.x264-HANDJOB 5.61GB-2.png 美丽的人/美丽腥世界 Beautiful.People.2014.1080p.BluRay.x264-HANDJOB 5.61GB-3.png 美丽的人/美丽腥世界 Beautiful.People.2014.1080p.BluRay.x264-HANDJOB 5.61GB-4.png






开通VIP免费下载本站所有资源---点这里
新手必看:资源下载、资源播放、字幕使用、等常见问题---点这里
回复

使用道具 举报

懒得打字嘛,点击右侧快捷回复 【右侧内容,后台自定义】
您需要登录后才可以回帖 登录 | 立即加入

本版积分规则

现在加入蓝光电影网,注册一个账号

QQ| 手机版|小黑屋| 蓝光电影网 |网站地图

Copyright © 2015-2019 Comsenz Inc.  Template by 蓝光电影网 All Rights Reserved.

Powered by 蓝光电影网 X3.4

特别声明:本站所有资源均由网上收集而来,版权归原影音公司所有,如果侵犯了你的权益,请通知我们,我们会及时删除侵权内容.

快速回复 返回顶部 返回列表