找回密码

蓝光电影网

查看: 113|回复: 2

[剧情] 红狼 Den.Roda.Vargen.2012.SWEDISH.1080p.BluRay.x264-HANDJOB 7.85GB

[复制链接]

 成长值: 955

发表于 6 天前 | 显示全部楼层 |阅读模式
MV5BMjIzMDgzMjcxMF5BMl5BanBnXkFtZTcwMDE0MzUwOA@@._V1_SY1000_CR0,0,675,1000_AL_.jpg

译  名 红狼 / The Red Wolf
片  名 Den r?da vargen
年  代 2012
产  地 Sweden
类  别 剧情 / 犯罪
语  言 瑞典语
IMDb评分  6.2/10 from 1484 users
IMDb链接  http://www.imdb.com/title/tt2188010
豆瓣评分 0/10 from 0 users
豆瓣链接 https://movie.douban.com/subject/11504253/
导  演 Agneta Fagerstr?m-Olsson
主  演 Malin Crépin


标  签 推理 | 犯罪 | 悬疑 | 瑞典电影 | 剧情 | 欧洲 | 北欧五国

简  介  

  One dark autumn night a journalist is murdered in Lulea. That leads Annika to an old attack on the airbase F21 in the late 1960s, when a young draftee was killed. More murders follow, and Annika is drawn into a deadly spiral of violence and terrorism that leads right up to the Cabinet Office and the Ministries.。
  1. Video
  2. ID                                       : 1
  3. Format                                   : AVC
  4. Format/Info                              : Advanced Video Codec
  5. Format profile                           : <a href="/cdn-cgi/l/email-protection" class="__cf_email__" data-cfemail="8fc7e6e8e7cfc3bba1be">[email protected]</a>
  6. Format settings                          : CABAC / 4 Ref Frames
  7. Format settings, CABAC                   : Yes
  8. Format settings, Reference frames        : 4 frames
  9. Codec ID                                 : V_MPEG4/ISO/AVC
  10. Duration                                 : 1 h 28 min
  11. Bit rate                                 : 12.0 Mb/s
  12. Width                                    : 1 920 pixels
  13. Height                                   : 1 080 pixels
  14. Display aspect ratio                     : 16:9
  15. Frame rate mode                          : Constant
  16. Frame rate                               : 25.000 FPS
  17. Color space                              : YUV
  18. Chroma subsampling                       : 4:2:0
  19. Bit depth                                : 8 bits
  20. Scan type                                : Progressive
  21. Bits/(Pixel*Frame)                       : 0.231
  22. Stream size                              : 7.42 GiB (95%)
  23. Writing library                          : x264 core 157 r2935 545de2f
  24. Encoding settings                        : cabac=1 / ref=4 / deblock=1:-3:-3 / analyse=0x3:0x133 / me=umh / subme=10 / psy=1 / psy_rd=1.00:0.00 / mixed_ref=1 / me_range=32 / chroma_me=1 / trellis=2 / 8x8dct=1 / cqm=0 / deadzone=21,11 / fast_pskip=0 / chroma_qp_offset=-2 / threads=12 / lookahead_threads=3 / sliced_threads=0 / nr=0 / decimate=0 / interlaced=0 / bluray_compat=0 / constrained_intra=0 / bframes=16 / b_pyramid=2 / b_adapt=2 / b_bias=0 / direct=3 / weightb=1 / open_gop=0 / weightp=2 / keyint=250 / keyint_min=25 / scenecut=40 / intra_refresh=0 / rc_lookahead=60 / rc=crf / mbtree=0 / crf=17.5 / qcomp=0.60 / qpmin=0 / qpmax=69 / qpstep=4 / vbv_maxrate=62500 / vbv_bufsize=78125 / crf_max=0.0 / nal_hrd=none / filler=0 / ip_ratio=1.40 / pb_ratio=1.30 / aq=2:1.00
  25. Default                                  : Yes
  26. Forced                                   : No
  27. Color range                              : Limited
  28. Color primaries                          : BT.709
  29. Transfer characteristics                 : BT.709
  30. Matrix coefficients                      : BT.709

  31. Audio
  32. ID                                       : 2
  33. Format                                   : AC-3
  34. Format/Info                              : Audio Coding 3
  35. Commercial name                          : Dolby Digital
  36. Codec ID                                 : A_AC3
  37. Duration                                 : 1 h 28 min
  38. Bit rate mode                            : Constant
  39. Bit rate                                 : 640 kb/s
  40. Channel(s)                               : 6 channels
  41. Channel layout                           : L R C LFE Ls Rs
  42. Sampling rate                            : 48.0 kHz
  43. Frame rate                               : 31.250 FPS (1536 SPF)
  44. Bit depth                                : 16 bits
  45. Compression mode                         : Lossy
  46. Stream size                              : 406 MiB (5%)
  47. Language                                 : Swedish
  48. Service kind                             : Complete Main
  49. Default                                  : Yes
  50. Forced                                   : No

  51. Text #1
  52. ID                                       : 3
  53. Format                                   : UTF-8
  54. Codec ID                                 : S_TEXT/UTF8
  55. Codec ID/Info                            : UTF-8 Plain Text
  56. Duration                                 : 1 h 24 min
  57. Bit rate                                 : 41 b/s
  58. Count of elements                        : 978
  59. Stream size                              : 25.7 KiB (0%)
  60. Language                                 : English
  61. Default                                  : Yes
  62. Forced                                   : No

  63. Text #2
  64. ID                                       : 4
  65. Format                                   : PGS
  66. Muxing mode                              : zlib
  67. Codec ID                                 : S_HDMV/PGS
  68. Codec ID/Info                            : Picture based subtitle format used on BDs/HD-DVDs
  69. Duration                                 : 1 h 26 min
  70. Bit rate                                 : 29.7 kb/s
  71. Count of elements                        : 1564
  72. Stream size                              : 18.4 MiB (0%)
  73. Language                                 : Swedish
  74. Default                                  : No
  75. Forced                                   : No

  76. Text #3
  77. ID                                       : 5
  78. Format                                   : PGS
  79. Muxing mode                              : zlib
  80. Codec ID                                 : S_HDMV/PGS
  81. Codec ID/Info                            : Picture based subtitle format used on BDs/HD-DVDs
  82. Duration                                 : 1 h 27 min
  83. Bit rate                                 : 30.4 kb/s
  84. Count of elements                        : 1516
  85. Stream size                              : 19.0 MiB (0%)
  86. Language                                 : Norwegian
  87. Default                                  : No
  88. Forced                                   : No

  89. Text #4
  90. ID                                       : 6
  91. Format                                   : PGS
  92. Muxing mode                              : zlib
  93. Codec ID                                 : S_HDMV/PGS
  94. Codec ID/Info                            : Picture based subtitle format used on BDs/HD-DVDs
  95. Duration                                 : 1 h 27 min
  96. Bit rate                                 : 31.4 kb/s
  97. Count of elements                        : 1520
  98. Stream size                              : 19.6 MiB (0%)
  99. Language                                 : Finnish
  100. Default                                  : No
  101. Forced                                   : No

  102. Menu
  103. 00:00:00.000                             : en:Chapter 1
  104. 00:10:00.000                             : en:Chapter 2
  105. 00:19:42.160                             : en:Chapter 3
  106. 00:30:01.600                             : en:Chapter 4
  107. 00:40:00.000                             : en:Chapter 5
  108. 00:50:00.000                             : en:Chapter 6
  109. 01:00:00.000                             : en:Chapter 7
  110. 01:10:00.000                             : en:Chapter 8
  111. 01:19:34.920                             : en:Chapter 9
  112. 01:26:48.040                             : en:Chapter 10
复制代码

红狼 Den.Roda.Vargen.2012.SWEDISH.1080p.BluRay.x264-HANDJOB 7.85GB-1.png 红狼 Den.Roda.Vargen.2012.SWEDISH.1080p.BluRay.x264-HANDJOB 7.85GB-2.png 红狼 Den.Roda.Vargen.2012.SWEDISH.1080p.BluRay.x264-HANDJOB 7.85GB-3.png






开通VIP免费下载本站所有资源---点这里
新手必看:资源下载、资源播放、字幕使用、等常见问题---点这里
回复

使用道具 举报

发表于 6 天前 | 显示全部楼层

这东西我收了!谢谢楼主!蓝光电影网真好!
开通VIP免费下载本站所有资源---点这里
新手必看:资源下载、资源播放、字幕使用、等常见问题---点这里
回复 支持 反对

使用道具 举报

发表于 4 天前 | 显示全部楼层

这东西我收了!谢谢楼主!蓝光电影网真好!
开通VIP免费下载本站所有资源---点这里
新手必看:资源下载、资源播放、字幕使用、等常见问题---点这里
回复 支持 反对

使用道具 举报

懒得打字嘛,点击右侧快捷回复 【右侧内容,后台自定义】
您需要登录后才可以回帖 登录 | 立即加入

本版积分规则

现在加入蓝光电影网,注册一个账号

QQ| 手机版|小黑屋| 蓝光电影网 |网站地图

Copyright © 2015-2019 Comsenz Inc.  Template by 蓝光电影网 All Rights Reserved.

Powered by 蓝光电影网 X3.4

特别声明:本站所有资源均由网上收集而来,版权归原影音公司所有,如果侵犯了你的权益,请通知我们,我们会及时删除侵权内容.

快速回复 返回顶部 返回列表