找回密码

蓝光电影网

查看: 122|回复: 2

[科幻] 飞碟入侵地球 Earth.Vs.The.Flying.Saucers.1956.1080p.BluRay.x264-HANDJOB 7.19GB

[复制链接]

 成长值: 2710

发表于 2019-8-14 23:44:39 | 显示全部楼层 |阅读模式
飞碟入侵地球 Earth.Vs.The.Flying.Saucers.1956.1080p.BluRay.x264-HANDJOB 7.19GB-1.png

译  名 飞碟入侵地球
片  名 Earth vs. the Flying Saucers
年  代 1956
产  地 美国
类  别 科幻 / 恐怖 / 奇幻
语  言 英语
上映日期 1956-08-01
IMDb评分  6.4/10 from 6409 users
IMDb链接  http://www.imdb.com/title/tt0049169
豆瓣评分 6.0/10 from 100 users
豆瓣链接 https://movie.douban.com/subject/2295259/
片  长 83 分钟
导  演 Fred F. Sears
编  剧 Donald E. Keyhoe / Curt Siodmak / George Worthing Yates / Bernard Gordon
主  演 休·马洛威 Hugh Marlowe
       琼·泰勒 Joan Taylor
       Donald Curtis


标  签 科幻 | 美国 | 1956 | cult | 1950s | 黑白 | 美国电影 | 恐怖

简  介  

  While driving through the desert with his wife Carol Marvin to a military base to send the eleventh rocket to the orbit of Earth for helping the exploration of the outer space in the Operation Sky Hook, Dr. Russell A. Marvin and Carol see a flying saucer and accidentally records a message in their tape recorder. Once in the base, Dr. Russell is informed by his father-in-law and general that the ten first satellites had mysteriously felt on Earth. When Dr. Russell decodes the message, he encounters the aliens that ask him to schedule a meeting with the leaders of Earth in Washington in 56 days with the intention to invade Earth without panicking the population. Dr. Russell develops an anti-magnetic weapon that becomes that last hope of human race against the hostile aliens.
  1. Video
  2. ID                                       : 1
  3. Format                                   : AVC
  4. Format/Info                              : Advanced Video Codec
  5. Format profile                           : <a href="/cdn-cgi/l/email-protection" class="__cf_email__" data-cfemail="cb83a2aca38b87ffe5fa">[email protected]</a>
  6. Format settings                          : CABAC / 4 Ref Frames
  7. Format settings, CABAC                   : Yes
  8. Format settings, Reference frames        : 4 frames
  9. Codec ID                                 : V_MPEG4/ISO/AVC
  10. Duration                                 : 1 h 23 min
  11. Bit rate                                 : 11.7 Mb/s
  12. Width                                    : 1 920 pixels
  13. Height                                   : 1 040 pixels
  14. Display aspect ratio                     : 1.85:1
  15. Frame rate mode                          : Constant
  16. Frame rate                               : 23.976 (24000/1001) FPS
  17. Color space                              : YUV
  18. Chroma subsampling                       : 4:2:0
  19. Bit depth                                : 8 bits
  20. Scan type                                : Progressive
  21. Bits/(Pixel*Frame)                       : 0.243
  22. Stream size                              : 6.81 GiB (95%)
  23. Writing library                          : x264 core 157 r2935 545de2f
  24. Encoding settings                        : cabac=1 / ref=4 / deblock=1:-3:-3 / analyse=0x3:0x133 / me=umh / subme=9 / psy=1 / psy_rd=1.00:0.00 / mixed_ref=1 / me_range=24 / chroma_me=1 / trellis=2 / 8x8dct=1 / cqm=0 / deadzone=21,11 / fast_pskip=0 / chroma_qp_offset=-2 / threads=18 / lookahead_threads=2 / sliced_threads=0 / nr=0 / decimate=1 / interlaced=0 / bluray_compat=0 / constrained_intra=0 / bframes=5 / b_pyramid=2 / b_adapt=2 / b_bias=0 / direct=3 / weightb=1 / open_gop=0 / weightp=2 / keyint=240 / keyint_min=24 / scenecut=40 / intra_refresh=0 / rc_lookahead=50 / rc=crf / mbtree=0 / crf=20.8 / qcomp=0.60 / qpmin=0 / qpmax=69 / qpstep=4 / vbv_maxrate=62500 / vbv_bufsize=78125 / crf_max=0.0 / nal_hrd=none / filler=0 / ip_ratio=1.40 / pb_ratio=1.30 / aq=2:1.00
  25. Default                                  : Yes
  26. Forced                                   : No
  27. Color range                              : Limited
  28. Color primaries                          : BT.709
  29. Transfer characteristics                 : BT.709
  30. Matrix coefficients                      : BT.709

  31. Audio
  32. ID                                       : 2
  33. Format                                   : AC-3
  34. Format/Info                              : Audio Coding 3
  35. Commercial name                          : Dolby Digital
  36. Codec ID                                 : A_AC3
  37. Duration                                 : 1 h 23 min
  38. Bit rate mode                            : Constant
  39. Bit rate                                 : 640 kb/s
  40. Channel(s)                               : 6 channels
  41. Channel layout                           : L R C LFE Ls Rs
  42. Sampling rate                            : 48.0 kHz
  43. Frame rate                               : 31.250 FPS (1536 SPF)
  44. Bit depth                                : 16 bits
  45. Compression mode                         : Lossy
  46. Stream size                              : 383 MiB (5%)
  47. Language                                 : English
  48. Service kind                             : Complete Main
  49. Default                                  : Yes
  50. Forced                                   : No

  51. Text
  52. ID                                       : 3
  53. Format                                   : UTF-8
  54. Codec ID                                 : S_TEXT/UTF8
  55. Codec ID/Info                            : UTF-8 Plain Text
  56. Duration                                 : 1 h 23 min
  57. Bit rate                                 : 55 b/s
  58. Count of elements                        : 779
  59. Stream size                              : 34.1 KiB (0%)
  60. Language                                 : English
  61. Default                                  : No
  62. Forced                                   : No

  63. Menu
  64. 00:00:00.000                             : :1. UFO Sighting
  65. 00:02:46.333                             : :2. Operation Sky Hook
  66. 00:06:11.955                             : :3. Stop and Evaluate
  67. 00:10:44.102                             : :4. Shot Down
  68. 00:12:14.275                             : :5. Special BBQ
  69. 00:15:07.824                             : :6. Rocket Number 12
  70. 00:17:45.856                             : :7. UFO Landing
  71. 00:20:34.942                             : :8. Destroy and Capture
  72. 00:24:22.753                             : :9. Interstellar Conveyance
  73. 00:27:25.727                             : :10. The Message
  74. 00:30:13.979                             : :11. Calling the UFO
  75. 00:33:22.125                             : :12. Car Chase
  76. 00:35:21.703                             : :13. Boarding the UFO
  77. 00:38:02.322                             : :14. Between the Ticks
  78. 00:41:22.939                             : :15. Avoid Fighting
  79. 00:44:17.989                             : :16. New Weapon
  80. 00:48:16.268                             : :17. Function in Reality
  81. 00:49:47.651                             : :18. It Works
  82. 00:52:53.879                             : :19. Fire It Up
  83. 00:56:32.681                             : :20. Humanoid
  84. 00:59:27.856                             : :21. Decoding Their Language
  85. 01:02:44.010                             : :22. Super Powers
  86. 01:06:35.992                             : :23. Sun Spots
  87. 01:07:36.219                             : :24. Going Away Present
  88. 01:10:57.420                             : :25. Breaking Through
  89. 01:14:00.227                             : :26. Shot Down
  90. 01:17:23.681                             : :27. Falling From the Sky
  91. 01:20:15.144                             : :28. Present Danger Ended
复制代码

飞碟入侵地球 Earth.Vs.The.Flying.Saucers.1956.1080p.BluRay.x264-HANDJOB 7.19GB-2.png 飞碟入侵地球 Earth.Vs.The.Flying.Saucers.1956.1080p.BluRay.x264-HANDJOB 7.19GB-3.png 飞碟入侵地球 Earth.Vs.The.Flying.Saucers.1956.1080p.BluRay.x264-HANDJOB 7.19GB-4.png





回复

使用道具 举报

发表于 2019-8-18 10:40:23 | 显示全部楼层
那个年代的科幻片也是相当朴实的,人物设定也比较单纯,毕竟当时美国社会还算稳定安逸、蓬勃向上
回复 支持 反对

使用道具 举报

发表于 2019-8-26 17:14:34 | 显示全部楼层

其实我一直觉得楼主的品味不错!呵呵!蓝光电影网太棒了!
回复 支持 反对

使用道具 举报

懒得打字嘛,点击右侧快捷回复 【右侧内容,后台自定义】
您需要登录后才可以回帖 登录 | 立即加入

本版积分规则

现在加入蓝光电影网,注册一个账号
上个主题 下个主题 快速回复 收藏帖子 返回列表 客服中心 搜索

QQ| 手机版|小黑屋| 蓝光电影网 |网站地图 

Copyright © 2015-2019 Comsenz Inc.  Template by 蓝光电影论坛 All Rights Reserved.

Powered by 蓝光电影网 X3.4

特别声明:本站所有资源均由网上收集而来,版权归原影音公司所有,如果侵犯了你的权益,请通知我们,我们会及时删除侵权内容.

快速回复 返回顶部 返回列表