找回密码

蓝光电影网

查看: 127|回复: 0

[科幻] 哥斯拉:大怪兽总攻击/终极酷斯拉 Godzilla.Mothra.And.King.Ghidorah.Giant.Monsters.All-Out.Attack.2001.1080p.BluRay.x264-PHOBOS 9.84GB

[复制链接]

 成长值: 2710

发表于 2019-8-14 22:57:18 | 显示全部楼层 |阅读模式
哥斯拉:大怪兽总攻击/终极酷斯拉 Godzilla.Mothra.And.King.Ghidorah.Giant.Monsters.All-Out.Attack.2001.1080p.BluRay.x264-PHOBOS 9.84GB-1.png

译  名 哥斯拉:大怪兽总攻击 / 终极酷斯拉
片  名 ゴジラ?モスラ?キングギドラ 大怪獣総攻撃
年  代 2001
产  地 日本
类  别 科幻 / 惊悚 / 恐怖 / 奇幻
语  言 日语
上映日期 2001-12-15
IMDb评分  7.2/10 from 4638 users
IMDb链接  http://www.imdb.com/title/tt0279112
豆瓣评分 6.8/10 from 420 users
豆瓣链接 https://movie.douban.com/subject/1941150/
片  长 105 分钟
导  演 金子修介
编  剧 長谷川圭一 / 横谷昌宏
主  演 新山千春
       宇崎竜童
       葛山信吾


标  签 哥斯拉 | 日本 | 科幻 | 特摄 | 2001 | 电影 | 日本电影 | 经典

简  介  

  一艘隶属美国的核潜艇在关岛附近消失,后经日本方面证实该潜艇已因事故遇难,而防卫军在调查过程中竟然还在海底发现巨大生物的存在。与此同时,新泻妙高山、鹿儿岛池田湖、小笠原诸岛等地接连发生强烈的地震和人员伤亡事件,关于50年前那头大闹日本的哥斯拉的恐怖记忆相继在人们的脑中复苏。
  BS电视台女记者立花由里(新山千春 饰)近期正与同事调查接二连三的怪兽事件,从一个神秘老人的口中得知,所谓哥斯拉其实是太平洋战争中丧生的人们的冤魂聚集而成的怪兽,核潜艇事故引起的核泄漏似乎意外将哥斯拉唤醒。与它一同苏醒的还有被称为护国神兽的巴拉哥、摩斯拉、基多拉。日本本土面临空前的灾难……
  1. Video
  2. ID                                       : 1
  3. Format                                   : AVC
  4. Format/Info                              : Advanced Video Codec
  5. Format profile                           : <a href="/cdn-cgi/l/email-protection" class="__cf_email__" data-cfemail="7b33121c133b374f554a">[email protected]</a>
  6. Format settings                          : CABAC / 5 Ref Frames
  7. Format settings, CABAC                   : Yes
  8. Format settings, Reference frames        : 5 frames
  9. Codec ID                                 : V_MPEG4/ISO/AVC
  10. Duration                                 : 1 h 45 min
  11. Bit rate                                 : 10.4 Mb/s
  12. Width                                    : 1 920 pixels
  13. Height                                   : 824 pixels
  14. Display aspect ratio                     : 2.35:1
  15. Frame rate mode                          : Constant
  16. Frame rate                               : 23.976 (24000/1001) FPS
  17. Color space                              : YUV
  18. Chroma subsampling                       : 4:2:0
  19. Bit depth                                : 8 bits
  20. Scan type                                : Progressive
  21. Bits/(Pixel*Frame)                       : 0.273
  22. Stream size                              : 7.62 GiB (77%)
  23. Writing library                          : x264 core 142 r2453 ea0ca51
  24. Encoding settings                        : cabac=1 / ref=5 / deblock=1:0:0 / analyse=0x3:0x113 / me=umh / subme=8 / psy=1 / psy_rd=1.00:0.00 / mixed_ref=1 / me_range=16 / chroma_me=1 / trellis=1 / 8x8dct=1 / cqm=0 / deadzone=21,11 / fast_pskip=1 / chroma_qp_offset=-2 / threads=12 / lookahead_threads=2 / sliced_threads=0 / nr=0 / decimate=1 / interlaced=0 / bluray_compat=0 / constrained_intra=0 / bframes=3 / b_pyramid=2 / b_adapt=2 / b_bias=0 / direct=3 / weightb=1 / open_gop=0 / weightp=2 / keyint=240 / keyint_min=23 / scenecut=40 / intra_refresh=0 / rc_lookahead=50 / rc=2pass / mbtree=1 / bitrate=10358 / ratetol=1.0 / qcomp=0.60 / qpmin=0 / qpmax=69 / qpstep=4 / cplxblur=20.0 / qblur=0.5 / ip_ratio=1.40 / aq=1:1.00
  25. Language                                 : English
  26. Default                                  : Yes
  27. Forced                                   : No

  28. Audio #1
  29. ID                                       : 2
  30. Format                                   : DTS
  31. Format/Info                              : Digital Theater Systems
  32. Codec ID                                 : A_DTS
  33. Duration                                 : 1 h 45 min
  34. Bit rate mode                            : Constant
  35. Bit rate                                 : 1 509 kb/s
  36. Channel(s)                               : 6 channels
  37. Channel layout                           : C L R Ls Rs LFE
  38. Sampling rate                            : 48.0 kHz
  39. Frame rate                               : 93.750 FPS (512 SPF)
  40. Bit depth                                : 24 bits
  41. Compression mode                         : Lossy
  42. Stream size                              : 1.11 GiB (11%)
  43. Language                                 : Japanese
  44. Default                                  : Yes
  45. Forced                                   : No

  46. Audio #2
  47. ID                                       : 3
  48. Format                                   : DTS
  49. Format/Info                              : Digital Theater Systems
  50. Codec ID                                 : A_DTS
  51. Duration                                 : 1 h 45 min
  52. Bit rate mode                            : Constant
  53. Bit rate                                 : 1 509 kb/s
  54. Channel(s)                               : 6 channels
  55. Channel layout                           : C L R Ls Rs LFE
  56. Sampling rate                            : 48.0 kHz
  57. Frame rate                               : 93.750 FPS (512 SPF)
  58. Bit depth                                : 24 bits
  59. Compression mode                         : Lossy
  60. Stream size                              : 1.11 GiB (11%)
  61. Language                                 : English
  62. Default                                  : No
  63. Forced                                   : No

  64. Text #1
  65. ID                                       : 4
  66. Format                                   : UTF-8
  67. Codec ID                                 : S_TEXT/UTF8
  68. Codec ID/Info                            : UTF-8 Plain Text
  69. Duration                                 : 38 min 18 s
  70. Bit rate                                 : 0 b/s
  71. Count of elements                        : 7
  72. Stream size                              : 238 Bytes (0%)
  73. Language                                 : English
  74. Default                                  : Yes
  75. Forced                                   : No

  76. Text #2
  77. ID                                       : 5
  78. Format                                   : UTF-8
  79. Codec ID                                 : S_TEXT/UTF8
  80. Codec ID/Info                            : UTF-8 Plain Text
  81. Duration                                 : 1 h 39 min
  82. Bit rate                                 : 45 b/s
  83. Count of elements                        : 940
  84. Stream size                              : 33.4 KiB (0%)
  85. Title                                    : English (Forced)
  86. Language                                 : English
  87. Default                                  : No
  88. Forced                                   : Yes
复制代码

哥斯拉:大怪兽总攻击/终极酷斯拉 Godzilla.Mothra.And.King.Ghidorah.Giant.Monsters.All-Out.Attack.2001.1080p.BluRay.x264-PHOBOS 9.84GB-2.png 哥斯拉:大怪兽总攻击/终极酷斯拉 Godzilla.Mothra.And.King.Ghidorah.Giant.Monsters.All-Out.Attack.2001.1080p.BluRay.x264-PHOBOS 9.84GB-3.png 哥斯拉:大怪兽总攻击/终极酷斯拉 Godzilla.Mothra.And.King.Ghidorah.Giant.Monsters.All-Out.Attack.2001.1080p.BluRay.x264-PHOBOS 9.84GB-4.png






回复

使用道具 举报

懒得打字嘛,点击右侧快捷回复 【右侧内容,后台自定义】
您需要登录后才可以回帖 登录 | 立即加入

本版积分规则

现在加入蓝光电影网,注册一个账号
上个主题 下个主题 快速回复 收藏帖子 返回列表 客服中心 搜索

QQ| 手机版|小黑屋| 蓝光电影网 |网站地图 

Copyright © 2015-2019 Comsenz Inc.  Template by 蓝光电影论坛 All Rights Reserved.

Powered by 蓝光电影网 X3.4

特别声明:本站所有资源均由网上收集而来,版权归原影音公司所有,如果侵犯了你的权益,请通知我们,我们会及时删除侵权内容.

快速回复 返回顶部 返回列表