找回密码

蓝光电影网

查看: 56|回复: 0

[科幻] 哥斯拉大战超翔龙 Godzilla.vs.Megaguirus.2000.iNTERNAL.1080p.BluRay.x264-WaLMaRT 8.74GB

[复制链接]

 成长值: 955

发表于 7 天前 | 显示全部楼层 |阅读模式
哥斯拉大战超翔龙 Godzilla.vs.Megaguirus.2000.iNTERNAL.1080p.BluRay.x264-WaLMaRT 8.74GB-1.png

译  名 哥斯拉大战超翔龙 / Godzilla X Megaguirus: The G Extermination Command / Gojira tai Megagirasu: J? sh?metsu sakusen / 哥吉拉大战蝶龙
片  名 ゴジラ×メガギラス G消滅作戦
年  代 2000
产  地 日本
类  别 科幻
语  言 日语
上映日期 2000-12-16
IMDb评分  6.2/10 from 2952 users
IMDb链接  http://www.imdb.com/title/tt0255198
豆瓣评分 6.0/10 from 280 users
豆瓣链接 https://movie.douban.com/subject/2063932/
片  长 105 分钟
导  演 Masaaki Tezuka
编  剧 柏原寛司 / 三村渉
主  演 田中美里 Misato Tanaka
       谷原章介 Sh?suke Tanihara
       伊武雅刀 Masat? Ibu
       星由里子 Yuriko Hoshi
       黑部进 Susumu Kurobe


标  签 日本电影 | 日本 | 科幻 | 哥斯拉 | 特摄 | 2000 | 怪兽 | 电影

简  介  

  哥斯拉破坏日本多年,〈G对策总部〉发明黑洞炮对付。但实验出意外,引来古代巨大昆虫超翔龙重现,并攻击哥斯拉。日本成了哥斯拉、超翔龙及人类三方的战场。
  1. Video
  2. ID                                       : 1
  3. Format                                   : AVC
  4. Format/Info                              : Advanced Video Codec
  5. Format profile                           : <a href="/cdn-cgi/l/email-protection" class="__cf_email__" data-cfemail="b6fedfd1def6fa829887">[email protected]</a>
  6. Format settings                          : CABAC / 5 Ref Frames
  7. Format settings, CABAC                   : Yes
  8. Format settings, Reference frames        : 5 frames
  9. Codec ID                                 : V_MPEG4/ISO/AVC
  10. Duration                                 : 1 h 46 min
  11. Bit rate                                 : 8 782 kb/s
  12. Width                                    : 1 920 pixels
  13. Height                                   : 816 pixels
  14. Display aspect ratio                     : 2.35:1
  15. Frame rate mode                          : Constant
  16. Frame rate                               : 23.976 (24000/1001) FPS
  17. Color space                              : YUV
  18. Chroma subsampling                       : 4:2:0
  19. Bit depth                                : 8 bits
  20. Scan type                                : Progressive
  21. Bits/(Pixel*Frame)                       : 0.234
  22. Stream size                              : 6.33 GiB (72%)
  23. Writing library                          : x264 core 146 r2538 121396c
  24. Encoding settings                        : cabac=1 / ref=5 / deblock=1:-1:-1 / analyse=0x3:0x133 / me=umh / subme=7 / psy=1 / psy_rd=1.00:0.00 / mixed_ref=1 / me_range=16 / chroma_me=1 / trellis=1 / 8x8dct=1 / cqm=0 / deadzone=21,11 / fast_pskip=0 / chroma_qp_offset=-2 / threads=9 / lookahead_threads=1 / sliced_threads=0 / nr=0 / decimate=1 / interlaced=0 / bluray_compat=0 / constrained_intra=0 / bframes=3 / b_pyramid=2 / b_adapt=2 / b_bias=0 / direct=3 / weightb=1 / open_gop=0 / weightp=2 / keyint=240 / keyint_min=23 / scenecut=40 / intra_refresh=0 / rc_lookahead=50 / rc=2pass / mbtree=0 / bitrate=8782 / ratetol=1.0 / qcomp=0.60 / qpmin=10 / qpmax=51 / qpstep=4 / cplxblur=20.0 / qblur=0.5 / vbv_maxrate=62500 / vbv_bufsize=78125 / nal_hrd=none / filler=0 / ip_ratio=1.40 / pb_ratio=1.30 / aq=1:1.00
  25. Default                                  : Yes
  26. Forced                                   : No

  27. Audio #1
  28. ID                                       : 2
  29. Format                                   : DTS
  30. Format/Info                              : Digital Theater Systems
  31. Codec ID                                 : A_DTS
  32. Duration                                 : 1 h 46 min
  33. Bit rate mode                            : Constant
  34. Bit rate                                 : 1 509 kb/s
  35. Channel(s)                               : 6 channels
  36. Channel layout                           : C L R Ls Rs LFE
  37. Sampling rate                            : 48.0 kHz
  38. Frame rate                               : 93.750 FPS (512 SPF)
  39. Bit depth                                : 24 bits
  40. Compression mode                         : Lossy
  41. Stream size                              : 1.12 GiB (13%)
  42. Language                                 : Japanese
  43. Default                                  : Yes
  44. Forced                                   : No

  45. Audio #2
  46. ID                                       : 3
  47. Format                                   : DTS
  48. Format/Info                              : Digital Theater Systems
  49. Codec ID                                 : A_DTS
  50. Duration                                 : 1 h 46 min
  51. Bit rate mode                            : Constant
  52. Bit rate                                 : 1 509 kb/s
  53. Channel(s)                               : 6 channels
  54. Channel layout                           : C L R Ls Rs LFE
  55. Sampling rate                            : 48.0 kHz
  56. Frame rate                               : 93.750 FPS (512 SPF)
  57. Bit depth                                : 24 bits
  58. Compression mode                         : Lossy
  59. Stream size                              : 1.12 GiB (13%)
  60. Language                                 : English
  61. Default                                  : No
  62. Forced                                   : No

  63. Text
  64. ID                                       : 4
  65. Format                                   : UTF-8
  66. Codec ID                                 : S_TEXT/UTF8
  67. Codec ID/Info                            : UTF-8 Plain Text
  68. Language                                 : English
  69. Default                                  : Yes
  70. Forced                                   : No

  71. Menu
  72. 00:00:00.000                             : ja:00:00:00.000
  73. 00:06:54.331                             : ja:00:06:54.331
  74. 00:12:37.173                             : ja:00:12:37.173
  75. 00:18:55.301                             : ja:00:18:55.301
  76. 00:25:23.355                             : ja:00:25:23.355
  77. 00:32:25.861                             : ja:00:32:25.861
  78. 00:38:58.461                             : ja:00:38:58.461
  79. 00:45:35.816                             : ja:00:45:35.816
  80. 00:52:22.639                             : ja:00:52:22.639
  81. 00:58:55.031                             : ja:00:58:55.031
  82. 01:05:43.439                             : ja:01:05:43.439
  83. 01:11:52.725                             : ja:01:11:52.725
  84. 01:17:09.583                             : ja:01:17:09.583
  85. 01:24:53.839                             : ja:01:24:53.839
  86. 01:31:56.010                             : ja:01:31:56.010
  87. 01:38:49.924                             : ja:01:38:49.924
复制代码

哥斯拉大战超翔龙 Godzilla.vs.Megaguirus.2000.iNTERNAL.1080p.BluRay.x264-WaLMaRT 8.74GB-2.png 哥斯拉大战超翔龙 Godzilla.vs.Megaguirus.2000.iNTERNAL.1080p.BluRay.x264-WaLMaRT 8.74GB-3.png 哥斯拉大战超翔龙 Godzilla.vs.Megaguirus.2000.iNTERNAL.1080p.BluRay.x264-WaLMaRT 8.74GB-4.png






开通VIP免费下载本站所有资源---点这里
新手必看:资源下载、资源播放、字幕使用、等常见问题---点这里
回复

使用道具 举报

懒得打字嘛,点击右侧快捷回复 【右侧内容,后台自定义】
您需要登录后才可以回帖 登录 | 立即加入

本版积分规则

现在加入蓝光电影网,注册一个账号

QQ| 手机版|小黑屋| 蓝光电影网 |网站地图

Copyright © 2015-2019 Comsenz Inc.  Template by 蓝光电影网 All Rights Reserved.

Powered by 蓝光电影网 X3.4

特别声明:本站所有资源均由网上收集而来,版权归原影音公司所有,如果侵犯了你的权益,请通知我们,我们会及时删除侵权内容.

快速回复 返回顶部 返回列表