找回密码

蓝光电影网

查看: 75|回复: 0

[喜剧] 无上婚宴 Top.End.Wedding.2019.1080p.BluRay.x264.DTS-HD.MA.5.1-FGT 9.48GB

[复制链接]

 成长值: 955

发表于 7 天前 | 显示全部楼层 |阅读模式
无上婚宴 Top.End.Wedding.2019.1080p.BluRay.x264.DTS-HD.MA.5.1-FGT 9.48GB-1.png

译  名 无上婚宴 / Top-End Wedding
片  名 Top End Wedding
年  代 2019
产  地 澳大利亚
类  别 喜剧
语  言 英语
上映日期 2019-01-30(圣丹斯电影节)
IMDb评分  7.1/10 from 385 users
IMDb链接  http://www.imdb.com/title/tt7555072
豆瓣评分 0/10 from 0 users
豆瓣链接 https://movie.douban.com/subject/30390696/
导  演 韦恩·布莱尔 Wayne Blair
编  剧 Miranda Tapsell / Joshua Tyler
主  演 格威利姆·李 Gwilym Lee
       凯瑞·福克斯 Kerry Fox
       Miranda Tapsell
       Huw Higginson
       Travis Jeffery
       Shari Sebbens
       Ursula Yovich
       Elaine Crombie
       Matt Crook
       Atmiya Patel


标  签 澳洲 | 喜剧 | cinema | Cinema_2019 | 2019Sundance | 2019

简  介  

  暂无相关剧情介绍
  1. Video
  2. ID                                       : 1
  3. Format                                   : AVC
  4. Format/Info                              : Advanced Video Codec
  5. Format profile                           : <a href="/cdn-cgi/l/email-protection" class="__cf_email__" data-cfemail="bef6d7d9d6fef28a908f">[email protected]</a>
  6. Format settings                          : CABAC / 4 Ref Frames
  7. Format settings, CABAC                   : Yes
  8. Format settings, Reference frames        : 4 frames
  9. Codec ID                                 : V_MPEG4/ISO/AVC
  10. Duration                                 : 1 h 41 min
  11. Bit rate                                 : 11.5 Mb/s
  12. Width                                    : 1 920 pixels
  13. Height                                   : 800 pixels
  14. Display aspect ratio                     : 2.40:1
  15. Frame rate mode                          : Constant
  16. Frame rate                               : 24.000 FPS
  17. Color space                              : YUV
  18. Chroma subsampling                       : 4:2:0
  19. Bit depth                                : 8 bits
  20. Scan type                                : Progressive
  21. Bits/(Pixel*Frame)                       : 0.312
  22. Stream size                              : 8.18 GiB (86%)
  23. Title                                    : Top.End.Wedding.2019.1080p.BluRay.x264.DTS-HD.MA.5.1-FGT
  24. Writing library                          : x264 core 148 r2795M aaa9aa8
  25. Encoding settings                        : cabac=1 / ref=4 / deblock=1:-2:-2 / analyse=0x3:0x113 / me=umh / subme=9 / psy=1 / psy_rd=1.00:0.15 / mixed_ref=1 / me_range=16 / chroma_me=1 / trellis=2 / 8x8dct=1 / cqm=0 / deadzone=21,11 / fast_pskip=1 / chroma_qp_offset=-3 / threads=24 / lookahead_threads=3 / sliced_threads=0 / nr=0 / decimate=1 / interlaced=0 / bluray_compat=0 / constrained_intra=0 / bframes=3 / b_pyramid=2 / b_adapt=1 / b_bias=0 / direct=3 / weightb=1 / open_gop=0 / weightp=2 / keyint=250 / keyint_min=25 / scenecut=40 / intra_refresh=0 / rc_lookahead=50 / rc=2pass / mbtree=1 / bitrate=11500 / ratetol=1.0 / qcomp=0.60 / qpmin=0 / qpmax=69 / qpstep=4 / cplxblur=20.0 / qblur=0.5 / vbv_maxrate=31250 / vbv_bufsize=31250 / nal_hrd=none / filler=0 / ip_ratio=1.40 / aq=1:1.00
  26. Language                                 : English
  27. Default                                  : Yes
  28. Forced                                   : No

  29. Audio
  30. ID                                       : 2
  31. Format                                   : DTS XLL
  32. Format/Info                              : Digital Theater Systems
  33. Commercial name                          : DTS-HD Master Audio
  34. Codec ID                                 : A_DTS
  35. Duration                                 : 1 h 41 min
  36. Bit rate mode                            : Variable
  37. Bit rate                                 : 1 808 kb/s
  38. Channel(s)                               : 6 channels
  39. Channel layout                           : C L R Ls Rs LFE
  40. Sampling rate                            : 48.0 kHz
  41. Frame rate                               : 93.750 FPS (512 SPF)
  42. Bit depth                                : 16 bits
  43. Compression mode                         : Lossless
  44. Stream size                              : 1.29 GiB (14%)
  45. Title                                    : Top.End.Wedding.2019.1080p.BluRay.x264.DTS-HD.MA.5.1-FGT
  46. Language                                 : English
  47. Default                                  : Yes
  48. Forced                                   : No

  49. Text #1
  50. ID                                       : 3
  51. Format                                   : UTF-8
  52. Codec ID                                 : S_TEXT/UTF8
  53. Codec ID/Info                            : UTF-8 Plain Text
  54. Duration                                 : 1 h 38 min
  55. Bit rate                                 : 60 b/s
  56. Count of elements                        : 1497
  57. Stream size                              : 43.7 KiB (0%)
  58. Title                                    : English-SRT
  59. Language                                 : English
  60. Default                                  : Yes
  61. Forced                                   : No

  62. Text #2
  63. ID                                       : 4
  64. Format                                   : PGS
  65. Muxing mode                              : zlib
  66. Codec ID                                 : S_HDMV/PGS
  67. Codec ID/Info                            : Picture based subtitle format used on BDs/HD-DVDs
  68. Duration                                 : 1 h 39 min
  69. Bit rate                                 : 35.5 kb/s
  70. Count of elements                        : 2052
  71. Stream size                              : 25.2 MiB (0%)
  72. Title                                    : English-PGS
  73. Language                                 : English
  74. Default                                  : No
  75. Forced                                   : No

  76. Menu
  77. 00:00:00.000                             : en:Chapter 1
  78. 00:05:50.208                             : en:Chapter 2
  79. 00:13:15.958                             : en:Chapter 3
  80. 00:19:35.041                             : en:Chapter 4
  81. 00:27:10.666                             : en:Chapter 5
  82. 00:33:18.041                             : en:Chapter 6
  83. 00:39:59.750                             : en:Chapter 7
  84. 00:45:17.500                             : en:Chapter 8
  85. 00:50:07.791                             : en:Chapter 9
  86. 00:56:39.125                             : en:Chapter 10
  87. 01:03:19.416                             : en:Chapter 11
  88. 01:07:54.791                             : en:Chapter 12
  89. 01:14:48.791                             : en:Chapter 13
  90. 01:21:05.166                             : en:Chapter 14
  91. 01:25:57.083                             : en:Chapter 15
  92. 01:35:50.708                             : en:Chapter 16
复制代码

无上婚宴 Top.End.Wedding.2019.1080p.BluRay.x264.DTS-HD.MA.5.1-FGT 9.48GB-2.png 无上婚宴 Top.End.Wedding.2019.1080p.BluRay.x264.DTS-HD.MA.5.1-FGT 9.48GB-3.png 无上婚宴 Top.End.Wedding.2019.1080p.BluRay.x264.DTS-HD.MA.5.1-FGT 9.48GB-4.png






开通VIP免费下载本站所有资源---点这里
新手必看:资源下载、资源播放、字幕使用、等常见问题---点这里
回复

使用道具 举报

懒得打字嘛,点击右侧快捷回复 【右侧内容,后台自定义】
您需要登录后才可以回帖 登录 | 立即加入

本版积分规则

现在加入蓝光电影网,注册一个账号

QQ| 手机版|小黑屋| 蓝光电影网 |网站地图

Copyright © 2015-2019 Comsenz Inc.  Template by 蓝光电影网 All Rights Reserved.

Powered by 蓝光电影网 X3.4

特别声明:本站所有资源均由网上收集而来,版权归原影音公司所有,如果侵犯了你的权益,请通知我们,我们会及时删除侵权内容.

快速回复 返回顶部 返回列表