找回密码

蓝光电影网

查看: 180|回复: 2

[科幻] 哥斯拉之龙战四海 Godzilla.And.Mothra.The.Battle.For.Earth.1992.1080p.BluRay.x264-SADPANDA 8.72GB

[复制链接]

 成长值: 2575

发表于 2019-8-14 16:46:39 | 显示全部楼层 |阅读模式
哥斯拉之龙战四海 Godzilla.And.Mothra.The.Battle.For.Earth.1992.1080p.BluRay.x264-SADPANDA 8.72GB-1.png

译  名 哥斯拉之龙战四海 / Gojira vs. Mosura / 哥斯拉大战摩斯拉 / 蝶龙魔斯拉
片  名 ゴジラvsモスラ
年  代 1992
产  地 日本
类  别 科幻 / 恐怖
语  言 日语
上映日期 1992-12-12
IMDb评分  6.2/10 from 3760 users
IMDb链接  http://www.imdb.com/title/tt0104352
豆瓣评分 7.1/10 from 255 users
豆瓣链接 https://movie.douban.com/subject/2059284/
片  长 102 分钟
导  演 大河原孝夫 Takao Okawara
编  剧 大森一树 Kazuki Omori
主  演 別所哲也 Tetsuya Bessho
       小林聪美 Satomi Kobayashi
       村田雄浩 Takehiro Murata
       小高惠美 Megumi Odaka
       小林昭二 Akiji Kobayashi
       黑部进 Susumu Kurobe
       筱田三郎 Saburo Shinoda


标  签 怪兽 | 日本 | 科幻 | 哥斯拉 | 日本电影 | 特摄 | 电影 | 童年

简  介  

  远在人类文明15,000年前,地球上的高智能哥斯麽族就被两只大昆虫型怪物—摩斯拉及巴特拉所摧毁。而在一次山崩後,现今日本的伊房岛上却将埋藏在地下的摩斯拉巨蛋发掘来。其後三只史上最强大的怪兽—哥斯拉、摩斯拉及巴特拉碰头对决,虽然大怪兽摩斯拉及巴特拉联手成功将哥斯拉封印在海中,但人类的危机却并未解决,因为一颗超巨大的陨石将撞向地球…

获奖情况  

  第16届日本电影学院奖(1993)
  最佳配乐(提名) 伊福部昭
  1. Video
  2. ID                                       : 5
  3. Format                                   : AVC
  4. Format/Info                              : Advanced Video Codec
  5. Format profile                           : <a href="/cdn-cgi/l/email-protection" class="__cf_email__" data-cfemail="145c7d737c5458203a25">High@L4.1</a>
  6. Format settings                          : CABAC / 4 Ref Frames
  7. Format settings, CABAC                   : Yes
  8. Format settings, Reference frames        : 4 frames
  9. Codec ID                                 : V_MPEG4/ISO/AVC
  10. Duration                                 : 1 h 42 min
  11. Bit rate                                 : 9 199 kb/s
  12. Width                                    : 1 920 pixels
  13. Height                                   : 1 040 pixels
  14. Display aspect ratio                     : 1.85:1
  15. Frame rate mode                          : Constant
  16. Frame rate                               : 23.976 (24000/1001) FPS
  17. Color space                              : YUV
  18. Chroma subsampling                       : 4:2:0
  19. Bit depth                                : 8 bits
  20. Scan type                                : Progressive
  21. Bits/(Pixel*Frame)                       : 0.192
  22. Stream size                              : 6.39 GiB (73%)
  23. Writing library                          : x264 core 142 r2431 ac76440
  24. Encoding settings                        : cabac=1 / ref=4 / deblock=1:0:0 / analyse=0x3:0x133 / me=umh / subme=8 / psy=1 / psy_rd=1.00:0.00 / mixed_ref=1 / me_range=16 / chroma_me=1 / trellis=1 / 8x8dct=1 / cqm=0 / deadzone=21,11 / fast_pskip=0 / chroma_qp_offset=-2 / threads=18 / lookahead_threads=3 / sliced_threads=0 / nr=0 / decimate=1 / interlaced=0 / bluray_compat=0 / constrained_intra=0 / bframes=3 / b_pyramid=2 / b_adapt=1 / b_bias=0 / direct=1 / weightb=1 / open_gop=0 / weightp=2 / keyint=250 / keyint_min=23 / scenecut=40 / intra_refresh=0 / rc_lookahead=40 / rc=2pass / mbtree=1 / bitrate=9199 / ratetol=1.0 / qcomp=0.60 / qpmin=0 / qpmax=69 / qpstep=4 / cplxblur=20.0 / qblur=0.5 / ip_ratio=1.40 / aq=1:1.00
  25. Language                                 : English
  26. Default                                  : Yes
  27. Forced                                   : No

  28. Audio #1
  29. ID                                       : 1
  30. Format                                   : DTS
  31. Format/Info                              : Digital Theater Systems
  32. Codec ID                                 : A_DTS
  33. Duration                                 : 1 h 42 min
  34. Bit rate mode                            : Constant
  35. Bit rate                                 : 1 509 kb/s
  36. Channel(s)                               : 2 channels
  37. Channel layout                           : L R
  38. Sampling rate                            : 48.0 kHz
  39. Frame rate                               : 93.750 FPS (512 SPF)
  40. Bit depth                                : 24 bits
  41. Compression mode                         : Lossy
  42. Stream size                              : 1.08 GiB (12%)
  43. Title                                    : Japanese
  44. Language                                 : Japanese
  45. Default                                  : No
  46. Forced                                   : No

  47. Audio #2
  48. ID                                       : 2
  49. Format                                   : DTS
  50. Format/Info                              : Digital Theater Systems
  51. Codec ID                                 : A_DTS
  52. Duration                                 : 1 h 42 min
  53. Bit rate mode                            : Constant
  54. Bit rate                                 : 1 509 kb/s
  55. Channel(s)                               : 2 channels
  56. Channel layout                           : L R
  57. Sampling rate                            : 48.0 kHz
  58. Frame rate                               : 93.750 FPS (512 SPF)
  59. Bit depth                                : 24 bits
  60. Compression mode                         : Lossy
  61. Stream size                              : 1.08 GiB (12%)
  62. Title                                    : English
  63. Language                                 : English
  64. Default                                  : Yes
  65. Forced                                   : No

  66. Text #1
  67. ID                                       : 3
  68. Format                                   : UTF-8
  69. Codec ID                                 : S_TEXT/UTF8
  70. Codec ID/Info                            : UTF-8 Plain Text
  71. Title                                    : English
  72. Language                                 : English
  73. Default                                  : No
  74. Forced                                   : No

  75. Text #2
  76. ID                                       : 4
  77. Format                                   : UTF-8
  78. Codec ID                                 : S_TEXT/UTF8
  79. Codec ID/Info                            : UTF-8 Plain Text
  80. Title                                    : English Forced
  81. Language                                 : English
  82. Default                                  : Yes
  83. Forced                                   : No
复制代码

哥斯拉之龙战四海 Godzilla.And.Mothra.The.Battle.For.Earth.1992.1080p.BluRay.x264-SADPANDA 8.72GB-2.png 哥斯拉之龙战四海 Godzilla.And.Mothra.The.Battle.For.Earth.1992.1080p.BluRay.x264-SADPANDA 8.72GB-3.png 哥斯拉之龙战四海 Godzilla.And.Mothra.The.Battle.For.Earth.1992.1080p.BluRay.x264-SADPANDA 8.72GB-4.png






回复

使用道具 举报

发表于 2019-8-14 17:02:57 | 显示全部楼层

楼主太厉害了!楼主,电影应该很好看我觉得蓝光电影网真是个好地方!
回复 支持 反对

使用道具 举报

发表于 2019-8-16 19:08:00 | 显示全部楼层
蝶龙魔斯拉,怪兽之王后
回复 支持 反对

使用道具 举报

懒得打字嘛,点击右侧快捷回复 【右侧内容,后台自定义】
您需要登录后才可以回帖 登录 | 立即加入

本版积分规则

现在加入蓝光电影网,注册一个账号
上个主题 下个主题 快速回复 收藏帖子 返回列表 客服中心 搜索

QQ| 手机版|小黑屋| 蓝光电影网 |网站地图 

Copyright © 2015-2019 Comsenz Inc.  Template by 蓝光电影论坛 All Rights Reserved.

Powered by 蓝光电影网 X3.4

特别声明:本站所有资源均由网上收集而来,版权归原影音公司所有,如果侵犯了你的权益,请通知我们,我们会及时删除侵权内容.

快速回复 返回顶部 返回列表