找回密码

蓝光电影网

查看: 139|回复: 2

[科幻] 哥斯拉之世纪必杀阵 Godzilla.Vs.Destoroyah.1995.1080p.BluRay.x264-SADPANDA 8.75GB

[复制链接]

 成长值: 2710

发表于 2019-8-14 16:41:39 | 显示全部楼层 |阅读模式
哥斯拉之世纪必杀阵 Godzilla.Vs.Destoroyah.1995.1080p.BluRay.x264-SADPANDA 8.75GB-1.png

译  名 哥斯拉之世纪必杀阵 / Godzilla vs. Destroyer / 恐龙帝国
片  名 ゴジラvsデストロイア
年  代 1995
产  地 日本
类  别 动作 / 科幻 / 恐怖
语  言 日语
上映日期 1995-12-09
IMDb评分  7.0/10 from 4820 users
IMDb链接  http://www.imdb.com/title/tt0113187
豆瓣评分 7.7/10 from 394 users
豆瓣链接 https://movie.douban.com/subject/2067449/
片  长 103 分钟
导  演 大河原孝夫
编  剧 大森一樹
主  演 辰巳琢郎
       石野陽子
       林泰文
       河内桃子
       小高恵美


标  签 哥斯拉 | 日本 | 科幻 | 特摄 | 哥斯拉之世纪必杀阵 | 日本电影 | 好多哥斯拉的电影都是小时侯看的 | 电影

简  介  

  一个全身闪红光的哥斯拉在香港登陆,并把港岛和九龙的繁荣商业区破坏後离去。及後东京海底队道亦因为隧道机械主轴溶化不停发生事故,原来哥斯拉身上的冷却系统已破坏,令牠体内核子分裂快速活性化,并变成一座懂得步行的核子厂。同时东京水族馆发生谜一样的事件—水族馆内的鱼被离奇杀害,经研究後发现是一些生活在二亿多年前的地层生物—狄斯亚所造成。在临海副都心,自卫队派出冷冻战车迎战不明生物—狄斯亚及哥斯拉。此时哥斯拉的体温最终到达一千二百度,并可能引发全人类灭亡的核爆……

获奖情况  

  第19届日本电影学院奖(1996)
  最佳录音(提名) 宫内一男
  最佳剪辑(提名) 长田千鹤子
  1. Video
  2. ID                                       : 5
  3. Format                                   : AVC
  4. Format/Info                              : Advanced Video Codec
  5. Format profile                           : <a href="/cdn-cgi/l/email-protection" class="__cf_email__" data-cfemail="347c5d535c7478001a05">[email protected]</a>
  6. Format settings                          : CABAC / 4 Ref Frames
  7. Format settings, CABAC                   : Yes
  8. Format settings, Reference frames        : 4 frames
  9. Codec ID                                 : V_MPEG4/ISO/AVC
  10. Duration                                 : 1 h 42 min
  11. Bit rate                                 : 9 146 kb/s
  12. Width                                    : 1 920 pixels
  13. Height                                   : 1 040 pixels
  14. Display aspect ratio                     : 1.85:1
  15. Frame rate mode                          : Constant
  16. Frame rate                               : 23.976 (24000/1001) FPS
  17. Color space                              : YUV
  18. Chroma subsampling                       : 4:2:0
  19. Bit depth                                : 8 bits
  20. Scan type                                : Progressive
  21. Bits/(Pixel*Frame)                       : 0.191
  22. Stream size                              : 6.40 GiB (73%)
  23. Writing library                          : x264 core 142 r2431 ac76440
  24. Encoding settings                        : cabac=1 / ref=4 / deblock=1:0:0 / analyse=0x3:0x133 / me=umh / subme=8 / psy=1 / psy_rd=1.00:0.00 / mixed_ref=1 / me_range=16 / chroma_me=1 / trellis=1 / 8x8dct=1 / cqm=0 / deadzone=21,11 / fast_pskip=0 / chroma_qp_offset=-2 / threads=18 / lookahead_threads=3 / sliced_threads=0 / nr=0 / decimate=1 / interlaced=0 / bluray_compat=0 / constrained_intra=0 / bframes=3 / b_pyramid=2 / b_adapt=1 / b_bias=0 / direct=1 / weightb=1 / open_gop=0 / weightp=2 / keyint=250 / keyint_min=23 / scenecut=40 / intra_refresh=0 / rc_lookahead=40 / rc=2pass / mbtree=1 / bitrate=9146 / ratetol=1.0 / qcomp=0.60 / qpmin=0 / qpmax=69 / qpstep=4 / cplxblur=20.0 / qblur=0.5 / ip_ratio=1.40 / aq=1:1.00
  25. Language                                 : English
  26. Default                                  : Yes
  27. Forced                                   : No

  28. Audio #1
  29. ID                                       : 1
  30. Format                                   : DTS
  31. Format/Info                              : Digital Theater Systems
  32. Codec ID                                 : A_DTS
  33. Duration                                 : 1 h 42 min
  34. Bit rate mode                            : Constant
  35. Bit rate                                 : 1 509 kb/s
  36. Channel(s)                               : 2 channels
  37. Channel layout                           : L R
  38. Sampling rate                            : 48.0 kHz
  39. Frame rate                               : 93.750 FPS (512 SPF)
  40. Bit depth                                : 24 bits
  41. Compression mode                         : Lossy
  42. Stream size                              : 1.08 GiB (12%)
  43. Title                                    : Japanese
  44. Language                                 : Japanese
  45. Default                                  : No
  46. Forced                                   : No

  47. Audio #2
  48. ID                                       : 2
  49. Format                                   : DTS
  50. Format/Info                              : Digital Theater Systems
  51. Codec ID                                 : A_DTS
  52. Duration                                 : 1 h 42 min
  53. Bit rate mode                            : Constant
  54. Bit rate                                 : 1 509 kb/s
  55. Channel(s)                               : 2 channels
  56. Channel layout                           : L R
  57. Sampling rate                            : 48.0 kHz
  58. Frame rate                               : 93.750 FPS (512 SPF)
  59. Bit depth                                : 24 bits
  60. Compression mode                         : Lossy
  61. Stream size                              : 1.08 GiB (12%)
  62. Title                                    : English
  63. Language                                 : English
  64. Default                                  : Yes
  65. Forced                                   : No

  66. Text #1
  67. ID                                       : 3
  68. Format                                   : UTF-8
  69. Codec ID                                 : S_TEXT/UTF8
  70. Codec ID/Info                            : UTF-8 Plain Text
  71. Title                                    : English
  72. Language                                 : English
  73. Default                                  : No
  74. Forced                                   : No

  75. Text #2
  76. ID                                       : 4
  77. Format                                   : UTF-8
  78. Codec ID                                 : S_TEXT/UTF8
  79. Codec ID/Info                            : UTF-8 Plain Text
  80. Title                                    : English Forced
  81. Language                                 : English
  82. Default                                  : Yes
  83. Forced                                   : No
复制代码

哥斯拉之世纪必杀阵 Godzilla.Vs.Destoroyah.1995.1080p.BluRay.x264-SADPANDA 8.75GB-2.png 哥斯拉之世纪必杀阵 Godzilla.Vs.Destoroyah.1995.1080p.BluRay.x264-SADPANDA 8.75GB-3.png 哥斯拉之世纪必杀阵 Godzilla.Vs.Destoroyah.1995.1080p.BluRay.x264-SADPANDA 8.75GB-4.png






回复

使用道具 举报

发表于 2019-8-15 12:04:07 | 显示全部楼层
小时候影院看的,那个时候叫恐龙帝国
回复 支持 反对

使用道具 举报

发表于 2019-8-17 13:46:33 | 显示全部楼层
回复

使用道具 举报

懒得打字嘛,点击右侧快捷回复 【右侧内容,后台自定义】
您需要登录后才可以回帖 登录 | 立即加入

本版积分规则

现在加入蓝光电影网,注册一个账号
上个主题 下个主题 快速回复 收藏帖子 返回列表 客服中心 搜索

QQ| 手机版|小黑屋| 蓝光电影网 |网站地图 

Copyright © 2015-2019 Comsenz Inc.  Template by 蓝光电影论坛 All Rights Reserved.

Powered by 蓝光电影网 X3.4

特别声明:本站所有资源均由网上收集而来,版权归原影音公司所有,如果侵犯了你的权益,请通知我们,我们会及时删除侵权内容.

快速回复 返回顶部 返回列表