找回密码

蓝光电影网

查看: 76|回复: 0

[科幻] 战龙哥斯拉之决战宇宙魔龙 Godzilla.Vs.Gigan.1972.REPACK.1080p.BluRay.X264-WaLMaRT 6.55GB

[复制链接]

 成长值: 955

发表于 7 天前 | 显示全部楼层 |阅读模式
战龙哥斯拉之决战宇宙魔龙 Godzilla.Vs.Gigan.1972.REPACK.1080p.BluRay.X264-WaLMaRT 6.55GB-1.png

译  名 战龙哥斯拉之决战宇宙魔龙 / Earth Assault Order: Godzilla vs. Gigan / Godzilla vs. Gigan / 地球攻击命令 哥斯拉对盖刚
片  名 地球攻撃命令 ゴジラ対ガイガン
年  代 1972
产  地 日本
类  别 动作 / 科幻 / 恐怖 / 冒险
语  言 日语
上映日期 1972-03-12(日本)
IMDb评分  5.7/10 from 3454 users
IMDb链接  http://www.imdb.com/title/tt0068371
豆瓣评分 5.6/10 from 140 users
豆瓣链接 https://movie.douban.com/subject/2062627/
片  长 89 分钟
导  演 福田纯 Jun Fukuda
编  剧 关泽新一 Shinichi Sekizawa
主  演 石川博
       梅田智子 Tomoko Umeda
       菱美百合子 Yuriko Hishimi
       高岛稔
       藤田渐
       西泽俊明 Toshiaki Nishizawa
       村井国夫 Kunio Murai


标  签 哥斯拉 | 日本 | 特摄 | 科幻 | 日本电影 | 电影 | 1972 | 童年回忆

简  介  

  小高源吾是个喜爱怪兽的漫画家,但是自己所创作的怪兽往往不被自己的上司所欣赏,某天一个怪兽游乐园的人看中了他的作品于是雇用了小高,起初小高还很高兴的接下了这项工作,但是在过程当中却不断的发生奇怪的事情,也因此使得在怪兽岛的哥吉拉派遣安基拉斯来到日本,结果小高发现这居然是一场阴谋,而且这个阴谋正是以哥吉拉跟地球为目标.......
  1. Video
  2. ID                                       : 1
  3. Format                                   : AVC
  4. Format/Info                              : Advanced Video Codec
  5. Format profile                           : <a href="/cdn-cgi/l/email-protection" class="__cf_email__" data-cfemail="256d4c424d6569110b14">[email protected]</a>
  6. Format settings                          : CABAC / 5 Ref Frames
  7. Format settings, CABAC                   : Yes
  8. Format settings, Reference frames        : 5 frames
  9. Codec ID                                 : V_MPEG4/ISO/AVC
  10. Duration                                 : 1 h 29 min
  11. Bit rate                                 : 9 624 kb/s
  12. Width                                    : 1 920 pixels
  13. Height                                   : 816 pixels
  14. Display aspect ratio                     : 2.35:1
  15. Frame rate mode                          : Constant
  16. Frame rate                               : 23.976 (23976/1000) FPS
  17. Color space                              : YUV
  18. Chroma subsampling                       : 4:2:0
  19. Bit depth                                : 8 bits
  20. Scan type                                : Progressive
  21. Bits/(Pixel*Frame)                       : 0.256
  22. Stream size                              : 5.86 GiB (89%)
  23. Writing library                          : x264 core 142 r2431 ac76440
  24. Encoding settings                        : cabac=1 / ref=5 / deblock=1:0:0 / analyse=0x3:0x113 / me=umh / subme=7 / psy=1 / psy_rd=1.00:0.00 / mixed_ref=1 / me_range=16 / chroma_me=1 / trellis=1 / 8x8dct=1 / cqm=0 / deadzone=21,11 / fast_pskip=1 / chroma_qp_offset=-2 / threads=12 / lookahead_threads=2 / sliced_threads=0 / nr=0 / decimate=1 / interlaced=0 / bluray_compat=0 / constrained_intra=0 / bframes=3 / b_pyramid=2 / b_adapt=2 / b_bias=0 / direct=3 / weightb=1 / open_gop=0 / weightp=2 / keyint=250 / keyint_min=23 / scenecut=40 / intra_refresh=0 / rc_lookahead=50 / rc=2pass / mbtree=1 / bitrate=9624 / ratetol=1.0 / qcomp=0.60 / qpmin=0 / qpmax=69 / qpstep=4 / cplxblur=20.0 / qblur=0.5 / ip_ratio=1.40 / aq=1:1.00
  25. Default                                  : Yes
  26. Forced                                   : No

  27. Audio #1
  28. ID                                       : 2
  29. Format                                   : AC-3
  30. Format/Info                              : Audio Coding 3
  31. Commercial name                          : Dolby Digital
  32. Codec ID                                 : A_AC3
  33. Duration                                 : 1 h 29 min
  34. Bit rate mode                            : Constant
  35. Bit rate                                 : 448 kb/s
  36. Channel(s)                               : 2 channels
  37. Channel layout                           : L R
  38. Sampling rate                            : 48.0 kHz
  39. Frame rate                               : 31.250 FPS (1536 SPF)
  40. Bit depth                                : 16 bits
  41. Compression mode                         : Lossy
  42. Stream size                              : 286 MiB (4%)
  43. Title                                    : English
  44. Language                                 : English
  45. Service kind                             : Complete Main
  46. Default                                  : Yes
  47. Forced                                   : No

  48. Audio #2
  49. ID                                       : 3
  50. Format                                   : AC-3
  51. Format/Info                              : Audio Coding 3
  52. Commercial name                          : Dolby Digital
  53. Codec ID                                 : A_AC3
  54. Duration                                 : 1 h 29 min
  55. Bit rate mode                            : Constant
  56. Bit rate                                 : 448 kb/s
  57. Channel(s)                               : 2 channels
  58. Channel layout                           : L R
  59. Sampling rate                            : 48.0 kHz
  60. Frame rate                               : 31.250 FPS (1536 SPF)
  61. Bit depth                                : 16 bits
  62. Compression mode                         : Lossy
  63. Stream size                              : 286 MiB (4%)
  64. Title                                    : Japanese
  65. Language                                 : Japanese
  66. Service kind                             : Complete Main
  67. Default                                  : No
  68. Forced                                   : No

  69. Text #1
  70. ID                                       : 4
  71. Format                                   : UTF-8
  72. Codec ID                                 : S_TEXT/UTF8
  73. Codec ID/Info                            : UTF-8 Plain Text
  74. Title                                    : English Forced
  75. Default                                  : Yes
  76. Forced                                   : No

  77. Text #2
  78. ID                                       : 5
  79. Format                                   : UTF-8
  80. Codec ID                                 : S_TEXT/UTF8
  81. Codec ID/Info                            : UTF-8 Plain Text
  82. Title                                    : English
  83. Language                                 : English
  84. Default                                  : No
  85. Forced                                   : No

  86. Menu
  87. 00:00:00.000                             : en:00:00:00.000
  88. 00:02:09.338                             : en:00:02:09.338
  89. 00:17:21.415                             : en:00:17:21.415
  90. 00:28:09.563                             : en:00:28:09.563
  91. 00:36:32.482                             : en:00:36:32.482
  92. 00:43:19.680                             : en:00:43:19.680
  93. 00:45:59.048                             : en:00:45:59.048
  94. 00:48:59.728                             : en:00:48:59.728
  95. 00:58:19.955                             : en:00:58:19.955
  96. 01:07:22.247                             : en:01:07:22.247
  97. 01:10:30.184                             : en:01:10:30.184
  98. 01:16:38.844                             : en:01:16:38.844
  99. 01:27:40.172                             : en:01:27:40.172
复制代码

战龙哥斯拉之决战宇宙魔龙 Godzilla.Vs.Gigan.1972.REPACK.1080p.BluRay.X264-WaLMaRT 6.55GB-2.png 战龙哥斯拉之决战宇宙魔龙 Godzilla.Vs.Gigan.1972.REPACK.1080p.BluRay.X264-WaLMaRT 6.55GB-3.png 战龙哥斯拉之决战宇宙魔龙 Godzilla.Vs.Gigan.1972.REPACK.1080p.BluRay.X264-WaLMaRT 6.55GB-4.png






开通VIP免费下载本站所有资源---点这里
新手必看:资源下载、资源播放、字幕使用、等常见问题---点这里
回复

使用道具 举报

懒得打字嘛,点击右侧快捷回复 【右侧内容,后台自定义】
您需要登录后才可以回帖 登录 | 立即加入

本版积分规则

现在加入蓝光电影网,注册一个账号

QQ| 手机版|小黑屋| 蓝光电影网 |网站地图

Copyright © 2015-2019 Comsenz Inc.  Template by 蓝光电影网 All Rights Reserved.

Powered by 蓝光电影网 X3.4

特别声明:本站所有资源均由网上收集而来,版权归原影音公司所有,如果侵犯了你的权益,请通知我们,我们会及时删除侵权内容.

快速回复 返回顶部 返回列表