找回密码

蓝光电影网

查看: 33|回复: 0

[科幻] 哥斯拉对黑多拉 Godzilla.Vs.Hedorah.1971.1080p.BluRay.x264-PHOBOS 7.66GB

[复制链接]

 成长值: 955

发表于 7 天前 | 显示全部楼层 |阅读模式
哥斯拉对黑多拉 Godzilla.Vs.Hedorah.1971.1080p.BluRay.x264-PHOBOS 7.66GB-1.png

译  名 哥斯拉对黑多拉 / Godzilla vs. Hedora
片  名 ゴジラ対ヘドラ
年  代 1971
产  地 日本
类  别 科幻 / 恐怖 / 音乐
语  言 日语
上映日期 1971-12-10
IMDb评分  6.0/10 from 3865 users
IMDb链接  http://www.imdb.com/title/tt0067148
豆瓣评分 6.4/10 from 152 users
豆瓣链接 https://movie.douban.com/subject/2063917/
片  长 Germany: 96 分钟
导  演 坂野义光
编  剧 馬淵薫 / 坂野義光
主  演 山内明 Akira Yamanouchi
       柴本俊夫
       川濑裕之 Hiroyuki Kawase
       吉田义夫


标  签 日本 | 哥斯拉 | 科幻 | 特摄 | 日本电影 | 1971 | 电影 | 终于找到哥斯拉的电影了

简  介  

  由于环境严重的污染,使得蝌蚪受到突变而成为黑多拉,并且造成极大的破坏,人类几乎束手无策,而哥吉拉也费尽了极大的心思跟他战斗,最后人类与哥斯拉一同战胜了黑多拉。
  1. Video
  2. ID                                       : 1
  3. Format                                   : AVC
  4. Format/Info                              : Advanced Video Codec
  5. Format profile                           : <a href="/cdn-cgi/l/email-protection" class="__cf_email__" data-cfemail="f8b0919f90b8b4ccd6c9">[email protected]</a>
  6. Format settings                          : CABAC / 5 Ref Frames
  7. Format settings, CABAC                   : Yes
  8. Format settings, Reference frames        : 5 frames
  9. Codec ID                                 : V_MPEG4/ISO/AVC
  10. Duration                                 : 1 h 25 min
  11. Bit rate                                 : 9 801 kb/s
  12. Width                                    : 1 920 pixels
  13. Height                                   : 816 pixels
  14. Display aspect ratio                     : 2.35:1
  15. Frame rate mode                          : Constant
  16. Frame rate                               : 23.976 (24000/1001) FPS
  17. Color space                              : YUV
  18. Chroma subsampling                       : 4:2:0
  19. Bit depth                                : 8 bits
  20. Scan type                                : Progressive
  21. Bits/(Pixel*Frame)                       : 0.261
  22. Stream size                              : 5.85 GiB (76%)
  23. Writing library                          : x264 core 142 r2479 dd79a61
  24. Encoding settings                        : cabac=1 / ref=5 / deblock=1:0:0 / analyse=0x3:0x113 / me=umh / subme=8 / psy=1 / psy_rd=1.00:0.00 / mixed_ref=1 / me_range=16 / chroma_me=1 / trellis=1 / 8x8dct=1 / cqm=0 / deadzone=21,11 / fast_pskip=1 / chroma_qp_offset=-2 / threads=12 / lookahead_threads=2 / sliced_threads=0 / nr=0 / decimate=1 / interlaced=0 / bluray_compat=0 / constrained_intra=0 / bframes=3 / b_pyramid=2 / b_adapt=2 / b_bias=0 / direct=3 / weightb=1 / open_gop=0 / weightp=2 / keyint=240 / keyint_min=23 / scenecut=40 / intra_refresh=0 / rc_lookahead=50 / rc=2pass / mbtree=1 / bitrate=9801 / ratetol=1.0 / qcomp=0.60 / qpmin=0 / qpmax=69 / qpstep=4 / cplxblur=20.0 / qblur=0.5 / ip_ratio=1.40 / aq=1:1.00
  25. Language                                 : English
  26. Default                                  : Yes
  27. Forced                                   : No

  28. Audio #1
  29. ID                                       : 2
  30. Format                                   : DTS
  31. Format/Info                              : Digital Theater Systems
  32. Codec ID                                 : A_DTS
  33. Duration                                 : 1 h 25 min
  34. Bit rate mode                            : Constant
  35. Bit rate                                 : 1 509 kb/s
  36. Channel(s)                               : 2 channels
  37. Channel layout                           : L R
  38. Sampling rate                            : 48.0 kHz
  39. Frame rate                               : 93.750 FPS (512 SPF)
  40. Bit depth                                : 24 bits
  41. Compression mode                         : Lossy
  42. Stream size                              : 923 MiB (12%)
  43. Language                                 : Japanese
  44. Default                                  : Yes
  45. Forced                                   : No

  46. Audio #2
  47. ID                                       : 3
  48. Format                                   : DTS
  49. Format/Info                              : Digital Theater Systems
  50. Codec ID                                 : A_DTS
  51. Duration                                 : 1 h 25 min
  52. Bit rate mode                            : Constant
  53. Bit rate                                 : 1 509 kb/s
  54. Channel(s)                               : 2 channels
  55. Channel layout                           : L R
  56. Sampling rate                            : 48.0 kHz
  57. Frame rate                               : 93.750 FPS (512 SPF)
  58. Bit depth                                : 24 bits
  59. Compression mode                         : Lossy
  60. Stream size                              : 923 MiB (12%)
  61. Language                                 : English
  62. Default                                  : No
  63. Forced                                   : No

  64. Text #1
  65. ID                                       : 4
  66. Format                                   : UTF-8
  67. Codec ID                                 : S_TEXT/UTF8
  68. Codec ID/Info                            : UTF-8 Plain Text
  69. Duration                                 : 1 h 21 min
  70. Bit rate                                 : 22 b/s
  71. Count of elements                        : 383
  72. Stream size                              : 13.6 KiB (0%)
  73. Language                                 : English
  74. Default                                  : Yes
  75. Forced                                   : No

  76. Text #2
  77. ID                                       : 5
  78. Format                                   : UTF-8
  79. Codec ID                                 : S_TEXT/UTF8
  80. Codec ID/Info                            : UTF-8 Plain Text
  81. Duration                                 : 34 min 17 s
  82. Bit rate                                 : 0 b/s
  83. Count of elements                        : 7
  84. Stream size                              : 121 Bytes (0%)
  85. Title                                    : English (Forced)
  86. Language                                 : English
  87. Default                                  : No
  88. Forced                                   : Yes
复制代码

哥斯拉对黑多拉 Godzilla.Vs.Hedorah.1971.1080p.BluRay.x264-PHOBOS 7.66GB-2.png 哥斯拉对黑多拉 Godzilla.Vs.Hedorah.1971.1080p.BluRay.x264-PHOBOS 7.66GB-3.png 哥斯拉对黑多拉 Godzilla.Vs.Hedorah.1971.1080p.BluRay.x264-PHOBOS 7.66GB-4.png






开通VIP免费下载本站所有资源---点这里
新手必看:资源下载、资源播放、字幕使用、等常见问题---点这里
回复

使用道具 举报

懒得打字嘛,点击右侧快捷回复 【右侧内容,后台自定义】
您需要登录后才可以回帖 登录 | 立即加入

本版积分规则

现在加入蓝光电影网,注册一个账号

QQ| 手机版|小黑屋| 蓝光电影网 |网站地图

Copyright © 2015-2019 Comsenz Inc.  Template by 蓝光电影网 All Rights Reserved.

Powered by 蓝光电影网 X3.4

特别声明:本站所有资源均由网上收集而来,版权归原影音公司所有,如果侵犯了你的权益,请通知我们,我们会及时删除侵权内容.

快速回复 返回顶部 返回列表