找回密码

蓝光电影网

查看: 111|回复: 1

[科幻] 哥斯拉大战机械哥斯拉 Godzilla.VS.Mechagodzilla.II.1993.1080p.BluRay.x264-SADPANDA 8.74GB

[复制链接]

 成长值: 2710

发表于 2019-8-14 16:36:31 | 显示全部楼层 |阅读模式
哥斯拉大战机械哥斯拉 Godzilla.VS.Mechagodzilla.II.1993.1080p.BluRay.x264-SADPANDA 8.74GB-1.png

译  名 哥斯拉大战机械哥斯拉 / ゴジラvsメカゴジラ / 哥吉拉大战铁甲哥吉拉
片  名 ゴジラvsメカゴジラ
年  代 1993
产  地 日本
类  别 剧情 / 动作 / 科幻 / 恐怖
语  言 日语
上映日期 1993-12-11
IMDb评分  6.6/10 from 3825 users
IMDb链接  http://www.imdb.com/title/tt0107027
豆瓣评分 6.9/10 from 272 users
豆瓣链接 https://movie.douban.com/subject/2067455/
片  长 108 分钟
导  演 大河原孝夫
编  剧 三村渉
主  演 高嶋政宏
       佐野量子
       中山忍


标  签 日本 | 科幻 | 哥斯拉 | 日本电影 | 1993 | 电影 | 特摄 | 特撮

简  介  

  1992年,日政府在关西的筑波建立国际哥斯拉对策中心。世界科技精英共聚一堂,合力研究一部G超武器—机械哥斯拉。以大前博士为首的考察团到达亚度诺亚岛时,发现了一只完整无缺的蛋。当团员把蛋带回京都时飞翼龙拿顿出现并攻击考察团一行人。这时哥斯拉亦在亚度诺亚岛出现,两只怪兽由海上战斗到陆上……

获奖情况  

  第17届日本电影学院奖(1994)
  最佳录音(提名) 宫内一男
  1. Video
  2. ID                                       : 5
  3. Format                                   : AVC
  4. Format/Info                              : Advanced Video Codec
  5. Format profile                           : <a href="/cdn-cgi/l/email-protection" class="__cf_email__" data-cfemail="a1e9c8c6c9e1ed958f90">[email protected]</a>
  6. Format settings                          : CABAC / 4 Ref Frames
  7. Format settings, CABAC                   : Yes
  8. Format settings, Reference frames        : 4 frames
  9. Codec ID                                 : V_MPEG4/ISO/AVC
  10. Duration                                 : 1 h 47 min
  11. Bit rate                                 : 8 574 kb/s
  12. Width                                    : 1 920 pixels
  13. Height                                   : 1 040 pixels
  14. Display aspect ratio                     : 1.85:1
  15. Frame rate mode                          : Constant
  16. Frame rate                               : 23.976 (24000/1001) FPS
  17. Color space                              : YUV
  18. Chroma subsampling                       : 4:2:0
  19. Bit depth                                : 8 bits
  20. Scan type                                : Progressive
  21. Bits/(Pixel*Frame)                       : 0.179
  22. Stream size                              : 6.29 GiB (72%)
  23. Writing library                          : x264 core 142 r2431 ac76440
  24. Encoding settings                        : cabac=1 / ref=4 / deblock=1:0:0 / analyse=0x3:0x133 / me=umh / subme=8 / psy=1 / psy_rd=1.00:0.00 / mixed_ref=1 / me_range=16 / chroma_me=1 / trellis=1 / 8x8dct=1 / cqm=0 / deadzone=21,11 / fast_pskip=0 / chroma_qp_offset=-2 / threads=18 / lookahead_threads=3 / sliced_threads=0 / nr=0 / decimate=1 / interlaced=0 / bluray_compat=0 / constrained_intra=0 / bframes=3 / b_pyramid=2 / b_adapt=1 / b_bias=0 / direct=1 / weightb=1 / open_gop=0 / weightp=2 / keyint=250 / keyint_min=23 / scenecut=40 / intra_refresh=0 / rc_lookahead=40 / rc=2pass / mbtree=1 / bitrate=8574 / ratetol=1.0 / qcomp=0.60 / qpmin=0 / qpmax=69 / qpstep=4 / cplxblur=20.0 / qblur=0.5 / ip_ratio=1.40 / aq=1:1.00
  25. Language                                 : English
  26. Default                                  : Yes
  27. Forced                                   : No

  28. Audio #1
  29. ID                                       : 1
  30. Format                                   : DTS
  31. Format/Info                              : Digital Theater Systems
  32. Codec ID                                 : A_DTS
  33. Duration                                 : 1 h 47 min
  34. Bit rate mode                            : Constant
  35. Bit rate                                 : 1 509 kb/s
  36. Channel(s)                               : 6 channels
  37. Channel layout                           : C L R Ls Rs LFE
  38. Sampling rate                            : 48.0 kHz
  39. Frame rate                               : 93.750 FPS (512 SPF)
  40. Bit depth                                : 24 bits
  41. Compression mode                         : Lossy
  42. Stream size                              : 1.14 GiB (13%)
  43. Title                                    : Japanese
  44. Language                                 : Japanese
  45. Default                                  : No
  46. Forced                                   : No

  47. Audio #2
  48. ID                                       : 2
  49. Format                                   : DTS
  50. Format/Info                              : Digital Theater Systems
  51. Codec ID                                 : A_DTS
  52. Duration                                 : 1 h 47 min
  53. Bit rate mode                            : Constant
  54. Bit rate                                 : 1 509 kb/s
  55. Channel(s)                               : 2 channels
  56. Channel layout                           : Lt Rt
  57. Sampling rate                            : 48.0 kHz
  58. Frame rate                               : 93.750 FPS (512 SPF)
  59. Bit depth                                : 24 bits
  60. Compression mode                         : Lossy
  61. Stream size                              : 1.14 GiB (13%)
  62. Title                                    : English
  63. Language                                 : English
  64. Default                                  : Yes
  65. Forced                                   : No

  66. Text #1
  67. ID                                       : 3
  68. Format                                   : UTF-8
  69. Codec ID                                 : S_TEXT/UTF8
  70. Codec ID/Info                            : UTF-8 Plain Text
  71. Title                                    : English
  72. Language                                 : English
  73. Default                                  : No
  74. Forced                                   : No

  75. Text #2
  76. ID                                       : 4
  77. Format                                   : UTF-8
  78. Codec ID                                 : S_TEXT/UTF8
  79. Codec ID/Info                            : UTF-8 Plain Text
  80. Title                                    : English Forced
  81. Language                                 : English
  82. Default                                  : Yes
  83. Forced                                   : No
复制代码

哥斯拉大战机械哥斯拉 Godzilla.VS.Mechagodzilla.II.1993.1080p.BluRay.x264-SADPANDA 8.74GB-2.png 哥斯拉大战机械哥斯拉 Godzilla.VS.Mechagodzilla.II.1993.1080p.BluRay.x264-SADPANDA 8.74GB-3.png 哥斯拉大战机械哥斯拉 Godzilla.VS.Mechagodzilla.II.1993.1080p.BluRay.x264-SADPANDA 8.74GB-4.png






回复

使用道具 举报

发表于 2019-8-16 19:05:18 | 显示全部楼层
这个好看看,期待
回复 支持 反对

使用道具 举报

懒得打字嘛,点击右侧快捷回复 【右侧内容,后台自定义】
您需要登录后才可以回帖 登录 | 立即加入

本版积分规则

现在加入蓝光电影网,注册一个账号
上个主题 下个主题 快速回复 收藏帖子 返回列表 客服中心 搜索

QQ| 手机版|小黑屋| 蓝光电影网 |网站地图 

Copyright © 2015-2019 Comsenz Inc.  Template by 蓝光电影论坛 All Rights Reserved.

Powered by 蓝光电影网 X3.4

特别声明:本站所有资源均由网上收集而来,版权归原影音公司所有,如果侵犯了你的权益,请通知我们,我们会及时删除侵权内容.

快速回复 返回顶部 返回列表