找回密码

蓝光电影网

查看: 30|回复: 0

[科幻] 哥斯拉·伊比拉·摩斯拉:南海大决斗/南海怪兽大决斗 Godzilla.Vs.The.Sea.Monster.1966.REPACK.1080p.BluRay.X264-WaLMaRT 6.55GB

[复制链接]

 成长值: 955

发表于 7 天前 | 显示全部楼层 |阅读模式
哥斯拉·伊比拉·摩斯拉:南海大决斗/南海怪兽大决斗 Godzilla.Vs.The.Sea.Monster.1966.REPACK.1080p.BluRay.X264-WaLMaRT 6.55GB-1.png

译  名 哥斯拉·伊比拉·摩斯拉:南海大决斗 / 南海怪兽大决斗
片  名 ゴジラ?エビラ?モスラ 南海の大決闘
年  代 1966
产  地 日本
类  别 剧情 / 喜剧 / 动作 / 科幻 / 冒险
语  言 日语
上映日期 1966-12-17
IMDb评分  5.3/10 from 3698 users
IMDb链接  http://www.imdb.com/title/tt0060464
豆瓣评分 5.7/10 from 164 users
豆瓣链接 https://movie.douban.com/subject/2067462/
片  长 87 分钟
导  演 福田纯 Jun Fukuda
编  剧 関沢新一 / 斯波一絵
主  演 宝田明 Akira Takarada
       水野久美 Kumi Mizuno
       平田昭彦 Akihiko Hirata
       田崎润 Jun Tazaki
       砂塚秀夫 Hideo Sunazuka
       当银长太郎 Ch?tar? T?gin
       伊吹彻 T?ru Ibuki
       渡边彻
       天本英世 Eisei Amamoto
       沢村いき雄
       伊藤久哉 Hisaya Ito


标  签 哥斯拉 | 日本 | 科幻 | 特摄 | 电影 | 日本电影 | 伊比拉 | 魔斯拉

简  介  

  良太开船去找男孩失踪的哥哥,遇到暴风雨漂流岛一座岛上,在那岛上发现了龙虾怪兽伊比拉,还有在岛上进行一项不为人知计划的神秘组织红竹,正巧碰到一位女原住民,通过她的帮助下四人潜入红竹的基地,竟发现哥斯拉在岛上的洞穴中休眠…….
  1. Video
  2. ID                                       : 1
  3. Format                                   : AVC
  4. Format/Info                              : Advanced Video Codec
  5. Format profile                           : <a href="/cdn-cgi/l/email-protection" class="__cf_email__" data-cfemail="3078595758707c041e01">[email protected]</a>
  6. Format settings                          : CABAC / 5 Ref Frames
  7. Format settings, CABAC                   : Yes
  8. Format settings, Reference frames        : 5 frames
  9. Codec ID                                 : V_MPEG4/ISO/AVC
  10. Duration                                 : 1 h 26 min
  11. Bit rate                                 : 9 888 kb/s
  12. Width                                    : 1 920 pixels
  13. Height                                   : 816 pixels
  14. Display aspect ratio                     : 2.35:1
  15. Frame rate mode                          : Constant
  16. Frame rate                               : 23.976 (23976/1000) FPS
  17. Color space                              : YUV
  18. Chroma subsampling                       : 4:2:0
  19. Bit depth                                : 8 bits
  20. Scan type                                : Progressive
  21. Bits/(Pixel*Frame)                       : 0.263
  22. Stream size                              : 5.88 GiB (90%)
  23. Writing library                          : x264 core 142 r2431 ac76440
  24. Encoding settings                        : cabac=1 / ref=5 / deblock=1:0:0 / analyse=0x3:0x113 / me=umh / subme=8 / psy=1 / psy_rd=1.00:0.00 / mixed_ref=1 / me_range=16 / chroma_me=1 / trellis=1 / 8x8dct=1 / cqm=0 / deadzone=21,11 / fast_pskip=1 / chroma_qp_offset=-2 / threads=12 / lookahead_threads=2 / sliced_threads=0 / nr=0 / decimate=1 / interlaced=0 / bluray_compat=0 / constrained_intra=0 / bframes=3 / b_pyramid=2 / b_adapt=2 / b_bias=0 / direct=3 / weightb=1 / open_gop=0 / weightp=2 / keyint=250 / keyint_min=23 / scenecut=40 / intra_refresh=0 / rc_lookahead=50 / rc=2pass / mbtree=1 / bitrate=9888 / ratetol=1.0 / qcomp=0.60 / qpmin=0 / qpmax=69 / qpstep=4 / cplxblur=20.0 / qblur=0.5 / ip_ratio=1.40 / aq=1:1.00
  25. Default                                  : Yes
  26. Forced                                   : No

  27. Audio #1
  28. ID                                       : 2
  29. Format                                   : AC-3
  30. Format/Info                              : Audio Coding 3
  31. Commercial name                          : Dolby Digital
  32. Codec ID                                 : A_AC3
  33. Duration                                 : 1 h 26 min
  34. Bit rate mode                            : Constant
  35. Bit rate                                 : 448 kb/s
  36. Channel(s)                               : 2 channels
  37. Channel layout                           : L R
  38. Sampling rate                            : 48.0 kHz
  39. Frame rate                               : 31.250 FPS (1536 SPF)
  40. Bit depth                                : 16 bits
  41. Compression mode                         : Lossy
  42. Stream size                              : 279 MiB (4%)
  43. Title                                    : English
  44. Language                                 : English
  45. Service kind                             : Complete Main
  46. Default                                  : Yes
  47. Forced                                   : No

  48. Audio #2
  49. ID                                       : 3
  50. Format                                   : AC-3
  51. Format/Info                              : Audio Coding 3
  52. Commercial name                          : Dolby Digital
  53. Codec ID                                 : A_AC3
  54. Duration                                 : 1 h 26 min
  55. Bit rate mode                            : Constant
  56. Bit rate                                 : 448 kb/s
  57. Channel(s)                               : 2 channels
  58. Channel layout                           : L R
  59. Sampling rate                            : 48.0 kHz
  60. Frame rate                               : 31.250 FPS (1536 SPF)
  61. Bit depth                                : 16 bits
  62. Compression mode                         : Lossy
  63. Stream size                              : 279 MiB (4%)
  64. Title                                    : Japanese
  65. Language                                 : Japanese
  66. Service kind                             : Complete Main
  67. Default                                  : No
  68. Forced                                   : No

  69. Text #1
  70. ID                                       : 4
  71. Format                                   : UTF-8
  72. Codec ID                                 : S_TEXT/UTF8
  73. Codec ID/Info                            : UTF-8 Plain Text
  74. Title                                    : English Forced
  75. Default                                  : Yes
  76. Forced                                   : No

  77. Text #2
  78. ID                                       : 5
  79. Format                                   : UTF-8
  80. Codec ID                                 : S_TEXT/UTF8
  81. Codec ID/Info                            : UTF-8 Plain Text
  82. Title                                    : English
  83. Default                                  : No
  84. Forced                                   : No

  85. Menu
  86. 00:00:00.000                             : en:00:00:00.000
  87. 00:01:41.852                             : en:00:01:41.852
  88. 00:12:15.693                             : en:00:12:15.693
  89. 00:18:45.541                             : en:00:18:45.541
  90. 00:20:22.263                             : en:00:20:22.263
  91. 00:46:05.596                             : en:00:46:05.596
  92. 00:51:38.721                             : en:00:51:38.721
  93. 01:14:05.733                             : en:01:14:05.733
  94. 01:21:47.611                             : en:01:21:47.611
  95. 01:23:36.386                             : en:01:23:36.386
  96. 01:26:18.673                             : en:01:26:18.673
复制代码

哥斯拉·伊比拉·摩斯拉:南海大决斗/南海怪兽大决斗 Godzilla.Vs.The.Sea.Monster.1966.REPACK.1080p.BluRay.X264-WaLMaRT 6.55GB-2.png 哥斯拉·伊比拉·摩斯拉:南海大决斗/南海怪兽大决斗 Godzilla.Vs.The.Sea.Monster.1966.REPACK.1080p.BluRay.X264-WaLMaRT 6.55GB-3.png 哥斯拉·伊比拉·摩斯拉:南海大决斗/南海怪兽大决斗 Godzilla.Vs.The.Sea.Monster.1966.REPACK.1080p.BluRay.X264-WaLMaRT 6.55GB-4.png






开通VIP免费下载本站所有资源---点这里
新手必看:资源下载、资源播放、字幕使用、等常见问题---点这里
回复

使用道具 举报

懒得打字嘛,点击右侧快捷回复 【右侧内容,后台自定义】
您需要登录后才可以回帖 登录 | 立即加入

本版积分规则

现在加入蓝光电影网,注册一个账号

QQ| 手机版|小黑屋| 蓝光电影网 |网站地图

Copyright © 2015-2019 Comsenz Inc.  Template by 蓝光电影网 All Rights Reserved.

Powered by 蓝光电影网 X3.4

特别声明:本站所有资源均由网上收集而来,版权归原影音公司所有,如果侵犯了你的权益,请通知我们,我们会及时删除侵权内容.

快速回复 返回顶部 返回列表