找回密码

蓝光电影网

查看: 82|回复: 0

[科幻] 金刚大战哥斯拉/金刚决战哥斯拉 King.Kong.Vs.Godzilla.1963.1080p.BluRay.x264.3000th.Release-WaLMaRT 6.56GB

[复制链接]

 成长值: 955

发表于 7 天前 | 显示全部楼层 |阅读模式
金刚大战哥斯拉/金刚决战哥斯拉 King.Kong.Vs.Godzilla.1963.1080p.BluRay.x264.3000th.Release-WaLMaRT 6.56GB-1.png

译  名 金刚大战哥斯拉 / 金刚决战哥斯拉 / 金刚对哥斯拉 / 金刚斗恐龙
片  名 キングコング対ゴジラ
年  代 1962
产  地 日本
类  别 喜剧 / 动作 / 科幻 / 恐怖 / 冒险
语  言 日语
上映日期 1962-08-11(日本)
IMDb评分  5.9/10 from 7252 users
IMDb链接  http://www.imdb.com/title/tt0056142
豆瓣评分 6.1/10 from 375 users
豆瓣链接 https://movie.douban.com/subject/1463226/
片  长 97分钟
导  演 本多猪四郎  Ishir? Honda
编  剧 関沢新一
主  演 高岛忠夫 Tadao Takashima
       佐原健二 Kenji Sahara
       藤木悠 Y? Fujiki
       有岛一郎 Ichir? Arishima
       田崎润 Jun Tazaki
       平田昭彦 Akihiko Hirata
       滨美枝 Mie Hama
       若林映子 Akiko Wakabayashi
       根岸明美 Akemi Negishi
       Senkichi ?mura
       堺左千夫 Sachio Sakai
       加藤春哉 Haruya Kato
       桐野洋雄 Nadao Kirino


标  签 日本 | 科幻 | 金刚大战哥斯拉 | 哥斯拉 | 日本电影 | 本多猪四郎 | 特摄 | 动作

简  介  

  哥斯拉突然從北極的冰中出現!哥斯拉擊沉核潛艇海洋號,更破壞北極的軍事基地後開始南下。同樣的時候,在太平洋製藥宣傳部,那公司為提高節目的收看率打算使用發俄島上的魔神,櫻井和古江的兩名宣傳人員便去了發俄島。他們發現島上出現的魔神就是金剛。於是把他弄暈帶到日本,不久在運送金剛的船遭日本政府攔截,但那時金剛突然從麻醉中甦醒,在運輸船上跑出來,游向日本,而且更在那須高原初次與哥斯拉對決。第1回合以哥斯拉的放射火焰取得勝利,金剛被打敗嗎?
  同時自衛隊正進行「火焰攻擊大作戰」,把汽油倒入河中然後燃點著火,哥斯拉竟然沒有直接渡過河流。不過哥斯拉在高壓電流前竟不能突破,還被嚇走了。
  另一方面,逃走了的金剛面對阻擋哥斯拉的電塔竟輕易被他突破,而且在發瘋地吃著美味的電流,金剛終於到達市中心,更捉了櫻井的妹妹作為人質登上國會會議廳,自衛隊便利用法羅島體細胞莓汁展開「美味果汁迷迷糊糊大作戰」莓汁從天而降,在空中爆炸灑落在金剛身上,令金剛暈倒了。
  自衛隊防止金剛破壞城市,又展開「氣球輸送大作戰」,大氣球綁在金剛身上,帶著牠往富士地區,被運送到富士高原的金剛,與哥斯拉再次決鬥,哥斯拉再把金剛打倒,更放出放射火焰令森林著火。幸好有股雷暴經過,閃電擊中金剛,電流被吸進金剛身體中,令他醒來,變成超級撒亞人般。
  金剛再戰哥斯拉,金剛使出雷擊拳,雙手找著哥斯拉的尾巴,然後三百六十度一轉把哥斯拉拋到另一處再戰,把熱海城徹底破壞,最後2頭怪獸更滾下山跌入海中。不久在海上只看到金剛的身影,哥斯拉被打敗了。
  其實東寶為了不想得罪美國,在故事中,哥斯拉是被打敗,但為鞏固哥斯拉在日本
  怪獸王的地位,卻在官網寫成平手!哥斯拉和金剛共戰3場,富士山1敗,電塔1勝,熱海城1勝。
  1. Video
  2. ID                                       : 1
  3. Format                                   : AVC
  4. Format/Info                              : Advanced Video Codec
  5. Format profile                           : <a href="/cdn-cgi/l/email-protection" class="__cf_email__" data-cfemail="84ccede3ecc4c8b0aab5">[email protected]</a>
  6. Format settings                          : CABAC / 5 Ref Frames
  7. Format settings, CABAC                   : Yes
  8. Format settings, Reference frames        : 5 frames
  9. Codec ID                                 : V_MPEG4/ISO/AVC
  10. Duration                                 : 1 h 30 min
  11. Bit rate                                 : 10.2 Mb/s
  12. Width                                    : 1 920 pixels
  13. Height                                   : 816 pixels
  14. Display aspect ratio                     : 2.35:1
  15. Frame rate mode                          : Constant
  16. Frame rate                               : 23.976 (23976/1000) FPS
  17. Color space                              : YUV
  18. Chroma subsampling                       : 4:2:0
  19. Bit depth                                : 8 bits
  20. Scan type                                : Progressive
  21. Bits/(Pixel*Frame)                       : 0.272
  22. Stream size                              : 6.36 GiB (97%)
  23. Writing library                          : x264 core 142 r2431 ac76440
  24. Encoding settings                        : cabac=1 / ref=5 / deblock=1:0:0 / analyse=0x3:0x113 / me=umh / subme=8 / psy=1 / psy_rd=1.00:0.00 / mixed_ref=1 / me_range=16 / chroma_me=1 / trellis=1 / 8x8dct=1 / cqm=0 / deadzone=21,11 / fast_pskip=1 / chroma_qp_offset=-2 / threads=12 / lookahead_threads=2 / sliced_threads=0 / nr=0 / decimate=1 / interlaced=0 / bluray_compat=0 / constrained_intra=0 / bframes=3 / b_pyramid=2 / b_adapt=2 / b_bias=0 / direct=3 / weightb=1 / open_gop=0 / weightp=2 / keyint=250 / keyint_min=23 / scenecut=40 / intra_refresh=0 / rc_lookahead=50 / rc=2pass / mbtree=1 / bitrate=10236 / ratetol=1.0 / qcomp=0.60 / qpmin=0 / qpmax=69 / qpstep=4 / cplxblur=20.0 / qblur=0.5 / ip_ratio=1.40 / aq=1:1.00
  25. Default                                  : Yes
  26. Forced                                   : No

  27. Audio
  28. ID                                       : 2
  29. Format                                   : AC-3
  30. Format/Info                              : Audio Coding 3
  31. Commercial name                          : Dolby Digital
  32. Codec ID                                 : A_AC3
  33. Duration                                 : 1 h 30 min
  34. Bit rate mode                            : Constant
  35. Bit rate                                 : 96.0 kb/s
  36. Channel(s)                               : 1 channel
  37. Channel layout                           : C
  38. Sampling rate                            : 48.0 kHz
  39. Frame rate                               : 31.250 FPS (1536 SPF)
  40. Bit depth                                : 16 bits
  41. Compression mode                         : Lossy
  42. Stream size                              : 62.4 MiB (1%)
  43. Title                                    : english
  44. Language                                 : English
  45. Service kind                             : Complete Main
  46. Default                                  : Yes
  47. Forced                                   : No

  48. Text
  49. ID                                       : 3
  50. Format                                   : UTF-8
  51. Codec ID                                 : S_TEXT/UTF8
  52. Codec ID/Info                            : UTF-8 Plain Text
  53. Title                                    : english
  54. Language                                 : English
  55. Default                                  : No
  56. Forced                                   : No
复制代码

金刚大战哥斯拉/金刚决战哥斯拉 King.Kong.Vs.Godzilla.1963.1080p.BluRay.x264.3000th.Release-WaLMaRT 6.56GB-2.png 金刚大战哥斯拉/金刚决战哥斯拉 King.Kong.Vs.Godzilla.1963.1080p.BluRay.x264.3000th.Release-WaLMaRT 6.56GB-3.png 金刚大战哥斯拉/金刚决战哥斯拉 King.Kong.Vs.Godzilla.1963.1080p.BluRay.x264.3000th.Release-WaLMaRT 6.56GB-4.png






开通VIP免费下载本站所有资源---点这里
新手必看:资源下载、资源播放、字幕使用、等常见问题---点这里
回复

使用道具 举报

懒得打字嘛,点击右侧快捷回复 【右侧内容,后台自定义】
您需要登录后才可以回帖 登录 | 立即加入

本版积分规则

现在加入蓝光电影网,注册一个账号

QQ| 手机版|小黑屋| 蓝光电影网 |网站地图

Copyright © 2015-2019 Comsenz Inc.  Template by 蓝光电影网 All Rights Reserved.

Powered by 蓝光电影网 X3.4

特别声明:本站所有资源均由网上收集而来,版权归原影音公司所有,如果侵犯了你的权益,请通知我们,我们会及时删除侵权内容.

快速回复 返回顶部 返回列表