找回密码

蓝光电影网

查看: 50|回复: 0

[剧情] 时光流逝 Where.The.Day.Takes.You.1992.1080p.BluRay.x264-HANDJOB 7.58GB

[复制链接]

 成长值: 955

发表于 7 天前 | 显示全部楼层 |阅读模式
时光流逝 Where.The.Day.Takes.You.1992.1080p.BluRay.x264-HANDJOB 7.58GB-1.png

译  名 时光流逝
片  名 Where the Day Takes You
年  代 1992
产  地 美国
类  别 剧情
语  言 英语
上映日期 1992-09-11
IMDb评分  6.7/10 from 2975 users
IMDb链接  http://www.imdb.com/title/tt0105810
豆瓣评分 0/10 from 0 users
豆瓣链接 https://movie.douban.com/subject/3008396/
片  长 105 分钟
导  演 Marc Rocco
编  剧 Michael Hitchcock / Marc Rocco
主  演 Laura San Giacomo
       Dermot Mulroney
       Robert Knepper
       Will Smith


标  签 WillSmith | 美国 | 威尔·史密斯 | 美國電影 | 社会 | 电影 | 爱情 | 时光流逝

简  介  

  暂无相关剧情介绍
  1. Video
  2. ID                                       : 1
  3. Format                                   : AVC
  4. Format/Info                              : Advanced Video Codec
  5. Format profile                           : <a href="/cdn-cgi/l/email-protection" class="__cf_email__" data-cfemail="3078595758707c041e01">[email protected]</a>
  6. Format settings                          : CABAC / 4 Ref Frames
  7. Format settings, CABAC                   : Yes
  8. Format settings, Reference frames        : 4 frames
  9. Codec ID                                 : V_MPEG4/ISO/AVC
  10. Duration                                 : 1 h 43 min
  11. Bit rate                                 : 10.3 Mb/s
  12. Width                                    : 1 920 pixels
  13. Height                                   : 1 036 pixels
  14. Display aspect ratio                     : 1.85:1
  15. Frame rate mode                          : Constant
  16. Frame rate                               : 23.976 (24000/1001) FPS
  17. Color space                              : YUV
  18. Chroma subsampling                       : 4:2:0
  19. Bit depth                                : 8 bits
  20. Scan type                                : Progressive
  21. Bits/(Pixel*Frame)                       : 0.216
  22. Stream size                              : 7.41 GiB (98%)
  23. Writing library                          : x264 core 157 r2935 545de2f
  24. Encoding settings                        : cabac=1 / ref=4 / deblock=1:-3:-3 / analyse=0x3:0x133 / me=umh / subme=10 / psy=1 / psy_rd=1.00:0.00 / mixed_ref=1 / me_range=32 / chroma_me=1 / trellis=2 / 8x8dct=1 / cqm=0 / deadzone=21,11 / fast_pskip=0 / chroma_qp_offset=-2 / threads=12 / lookahead_threads=3 / sliced_threads=0 / nr=0 / decimate=0 / interlaced=0 / bluray_compat=0 / constrained_intra=0 / bframes=16 / b_pyramid=2 / b_adapt=2 / b_bias=0 / direct=3 / weightb=1 / open_gop=0 / weightp=2 / keyint=240 / keyint_min=24 / scenecut=40 / intra_refresh=0 / rc_lookahead=60 / rc=crf / mbtree=0 / crf=22.0 / qcomp=0.60 / qpmin=0 / qpmax=69 / qpstep=4 / vbv_maxrate=62500 / vbv_bufsize=78125 / crf_max=0.0 / nal_hrd=none / filler=0 / ip_ratio=1.40 / pb_ratio=1.30 / aq=2:1.00
  25. Default                                  : Yes
  26. Forced                                   : No
  27. Color range                              : Limited
  28. Color primaries                          : BT.709
  29. Transfer characteristics                 : BT.709
  30. Matrix coefficients                      : BT.709

  31. Audio
  32. ID                                       : 2
  33. Format                                   : AAC LC
  34. Format/Info                              : Advanced Audio Codec Low Complexity
  35. Codec ID                                 : A_AAC-2
  36. Duration                                 : 1 h 43 min
  37. Bit rate                                 : 216 kb/s
  38. Channel(s)                               : 2 channels
  39. Channel layout                           : L R
  40. Sampling rate                            : 48.0 kHz
  41. Frame rate                               : 46.875 FPS (1024 SPF)
  42. Compression mode                         : Lossy
  43. Stream size                              : 159 MiB (2%)
  44. Language                                 : English
  45. Default                                  : Yes
  46. Forced                                   : No

  47. Text #1
  48. ID                                       : 3
  49. Format                                   : UTF-8
  50. Codec ID                                 : S_TEXT/UTF8
  51. Codec ID/Info                            : UTF-8 Plain Text
  52. Duration                                 : 1 h 41 min
  53. Bit rate                                 : 70 b/s
  54. Count of elements                        : 1584
  55. Stream size                              : 52.3 KiB (0%)
  56. Language                                 : English
  57. Default                                  : No
  58. Forced                                   : No

  59. Text #2
  60. ID                                       : 4
  61. Format                                   : PGS
  62. Muxing mode                              : zlib
  63. Codec ID                                 : S_HDMV/PGS
  64. Codec ID/Info                            : Picture based subtitle format used on BDs/HD-DVDs
  65. Duration                                 : 1 h 42 min
  66. Bit rate                                 : 30.0 kb/s
  67. Count of elements                        : 1864
  68. Stream size                              : 22.1 MiB (0%)
  69. Language                                 : French
  70. Default                                  : No
  71. Forced                                   : No

  72. Menu
  73. 00:00:00.000                             : en:Chapter 01
  74. 00:10:00.600                             : en:Chapter 02
  75. 00:20:01.200                             : en:Chapter 03
  76. 00:30:01.800                             : en:Chapter 04
  77. 00:40:02.400                             : en:Chapter 05
  78. 00:50:03.000                             : en:Chapter 06
  79. 01:00:03.600                             : en:Chapter 07
  80. 01:10:04.200                             : en:Chapter 08
  81. 01:20:04.800                             : en:Chapter 09
  82. 01:30:05.400                             : en:Chapter 10
  83. 01:38:38.204                             : en:Chapter 11
复制代码

时光流逝 Where.The.Day.Takes.You.1992.1080p.BluRay.x264-HANDJOB 7.58GB-2.png 时光流逝 Where.The.Day.Takes.You.1992.1080p.BluRay.x264-HANDJOB 7.58GB-3.png 时光流逝 Where.The.Day.Takes.You.1992.1080p.BluRay.x264-HANDJOB 7.58GB-4.png






开通VIP免费下载本站所有资源---点这里
新手必看:资源下载、资源播放、字幕使用、等常见问题---点这里
回复

使用道具 举报

懒得打字嘛,点击右侧快捷回复 【右侧内容,后台自定义】
您需要登录后才可以回帖 登录 | 立即加入

本版积分规则

现在加入蓝光电影网,注册一个账号

QQ| 手机版|小黑屋| 蓝光电影网 |网站地图

Copyright © 2015-2019 Comsenz Inc.  Template by 蓝光电影网 All Rights Reserved.

Powered by 蓝光电影网 X3.4

特别声明:本站所有资源均由网上收集而来,版权归原影音公司所有,如果侵犯了你的权益,请通知我们,我们会及时删除侵权内容.

快速回复 返回顶部 返回列表