找回密码

蓝光电影网

查看: 817|回复: 19

[2160p-WEB] 哥斯拉2:怪兽之王 Godzilla.King.of.the.Monsters.2019.INTERNAL.2160p.WEB.H265-DEFLATE 23.29GB

[复制链接]

 成长值: 1015

发表于 2019-8-14 16:09:40 | 显示全部楼层 |阅读模式
哥斯拉2:怪兽之王 Godzilla.King.of.the.Monsters.2019.INTERNAL.2160p.WEB.H265-DEFLATE 23.29GB-1.png

译  名 哥斯拉2:怪兽之王 / Godzilla 2 / 哥吉拉II怪兽之王(台) / 哥斯拉2 / 哥斯拉2018 / 哥斯拉II: 王者巨兽(港) / 哥斯拉:怪兽之王
片  名 Godzilla: King of the Monsters
年  代 2019
产  地 美国
类  别 动作 / 科幻 / 冒险 / 灾难
语  言 英语
上映日期 2019-05-25(大规模点映) / 2019-05-31(中国大陆/美国)
IMDb评分  6.6/10 from 52008 users
IMDb链接  http://www.imdb.com/title/tt3741700
豆瓣评分 6.4/10 from 140382 users
豆瓣链接 https://movie.douban.com/subject/25890017/
片  长 132分钟
导  演 迈克尔·道赫蒂 Michael Dougherty
编  剧 迈克尔·道赫蒂 Michael Dougherty / 扎克·希尔兹 Zach Shields / 麦克思·鲍伦斯坦 Max Borenstein
主  演 凯尔·钱德勒 Kyle Chandler
      维拉·法米加 Vera Farmiga
      米莉·波比·布朗 Millie Bobby Brown
      章子怡 Ziyi Zhang
      渡边谦 Ken Watanabe
      布莱德利·惠特福德 Bradley Whitford
      托马斯·米德蒂奇 Thomas Middleditch
      艾莎·辛德斯 Aisha Hinds
      莎莉·霍金斯 Sally Hawkins
      查尔斯·丹斯 Charles Dance
      大卫·斯特雷泽恩 David Strathairn
      小奥谢拉·杰克逊 O'Shea Jackson Jr.
      希·庞德 CCH Pounder
      安东尼·拉莫斯 Anthony Ramos
      杰森·莱尔斯 Jason Liles
      乔纳森·霍华德 Jonathan Howard
      莱尔·布罗卡托 Lyle Brocato
      兰德尔·P·海文斯 Randall P. Havens
      T·C·马特恩 T.C. Matherne
      吉米·冈萨雷斯 Jimmy Gonzales
      萨莎·里翁达 Sasha Rionda
      文斯·福斯特 Vince Foster
      贾斯蒂斯·利克 Justice Leak
      菲奥娜·哈丁汉姆 Fiona Hardingham
      露西·卡罗尔 Lucie Carroll
      约书亚·利瑞 Joshua Leary
      艾伦·马克森 Alan Maxson
      肯尼斯·以色列 Kenneth Israel
      阿尔·维森特 Al Vicente
      塞西尔·M·亨利 Cecil M. Henry
      迈克尔·大卫·育尔 Michael David Yuhl
      本杰明·韦弗 Benjamin Weaver
      卡梅伦·布鲁姆布罗 Cameron Brumbelow
      帕蒂·舍尔哈斯 Patti Schellhaas
      理查德·多顿 Richard Dorton
      詹姆斯·斯特林 James Sterling
      麦克斯韦·海史密斯 Maxwell Highsmith
      贾斯汀·斯劳特 Justin Slaughter
      肖恩·索斯 Shawn South
      马科·查卡 Marko Caka
      蒂莫西·卡尔 Timothy Carr


标  签 怪兽 | 科幻 | 灾难 | 美国 | 2019 | 特效 | 动作 | 日本

简  介  

  随着《哥斯拉》和《金刚:骷髅岛》在全球范围内取得成功,传奇影业和华纳兄弟影业联手开启了怪兽宇宙系列电影的新篇章—一部史诗级动作冒险巨制。在这部电影中,哥斯拉将和众多大家在流行文化中所熟知的怪兽展开较量。全新故事中,研究神秘动物学的机构“帝王组织”将勇敢直面巨型怪兽,其中强大的哥斯拉也将和魔斯拉、拉顿和它的死对头——三头王者基多拉展开激烈对抗。当这些只存在于传说里的超级生物再度崛起时,它们将展开王者争霸,人类的命运岌岌可危……

  1. Video
  2. ID                                       : 1
  3. Format                                   : HEVC
  4. Format/Info                              : High Efficiency Video Coding
  5. Format profile                           : Main <a href="/cdn-cgi/l/email-protection" class="__cf_email__" data-cfemail="c1f0f1818df4">[email protected]</a>@High
  6. Codec ID                                 : V_MPEGH/ISO/HEVC
  7. Duration                                 : 2 h 11 min
  8. Bit rate                                 : 24.2 Mb/s
  9. Width                                    : 3 840 pixels
  10. Height                                   : 1 600 pixels
  11. Original height                          : 2 160 pixels
  12. Display aspect ratio                     : 16:9
  13. Frame rate mode                          : Constant
  14. Frame rate                               : 23.976 (24000/1001) FPS
  15. Color space                              : YUV
  16. Chroma subsampling                       : 4:2:0 (Type 2)
  17. Bit depth                                : 10 bits
  18. Bits/(Pixel*Frame)                       : 0.164
  19. Stream size                              : 22.2 GiB (95%)
  20. Language                                 : English
  21. Default                                  : Yes
  22. Forced                                   : No
  23. Color range                              : Limited
  24. Color primaries                          : BT.709
  25. Transfer characteristics                 : BT.709
  26. Matrix coefficients                      : BT.709

  27. Audio
  28. ID                                       : 2
  29. Format                                   : E-AC-3 JOC
  30. Format/Info                              : Enhanced AC-3 with Joint Object Coding
  31. Commercial name                          : Dolby Digital Plus with Dolby Atmos
  32. Codec ID                                 : A_EAC3
  33. Duration                                 : 2 h 11 min
  34. Bit rate mode                            : Constant
  35. Bit rate                                 : 640 kb/s
  36. Channel(s)                               : 6 channels
  37. Channel layout                           : L R C LFE Ls Rs
  38. Sampling rate                            : 48.0 kHz
  39. Frame rate                               : 31.250 FPS (1536 SPF)
  40. Compression mode                         : Lossy
  41. Delay relative to video                  : 1 s 44 ms
  42. Stream size                              : 603 MiB (3%)
  43. Language                                 : English
  44. Service kind                             : Complete Main
  45. Default                                  : Yes
  46. Forced                                   : No
  47. Complexity index                         : 16
  48. Number of dynamic objects                : 15
  49. Bed channel count                        : 1 channel
  50. Bed channel configuration                : LFE

  51. Text #1
  52. ID                                       : 3
  53. Format                                   : UTF-8
  54. Codec ID                                 : S_TEXT/UTF8
  55. Codec ID/Info                            : UTF-8 Plain Text
  56. Title                                    : English
  57. Language                                 : English
  58. Default                                  : No
  59. Forced                                   : No

  60. Text #2
  61. ID                                       : 4
  62. Format                                   : UTF-8
  63. Codec ID                                 : S_TEXT/UTF8
  64. Codec ID/Info                            : UTF-8 Plain Text
  65. Title                                    : English (SDH)
  66. Language                                 : English
  67. Default                                  : No
  68. Forced                                   : No

  69. Text #3
  70. ID                                       : 5
  71. Format                                   : UTF-8
  72. Codec ID                                 : S_TEXT/UTF8
  73. Codec ID/Info                            : UTF-8 Plain Text
  74. Title                                    : Spanish
  75. Language                                 : Spanish
  76. Default                                  : No
  77. Forced                                   : No

  78. Menu
  79. 00:00:00.000                             : en:1
  80. 00:10:52.000                             : en:2
  81. 00:18:04.000                             : en:3
  82. 00:30:24.000                             : en:4
  83. 00:45:14.000                             : en:5
  84. 00:54:06.000                             : en:6
  85. 01:05:36.000                             : en:7
  86. 01:09:26.000                             : en:8
  87. 01:19:25.000                             : en:9
  88. 01:29:59.000                             : en:10
  89. 01:38:29.000                             : en:11
  90. 01:49:51.000                             : en:12
  91. 01:59:20.000                             : en:13
复制代码

哥斯拉2:怪兽之王 Godzilla.King.of.the.Monsters.2019.INTERNAL.2160p.WEB.H265-DEFLATE 23.29GB-2.png 哥斯拉2:怪兽之王 Godzilla.King.of.the.Monsters.2019.INTERNAL.2160p.WEB.H265-DEFLATE 23.29GB-3.png 哥斯拉2:怪兽之王 Godzilla.King.of.the.Monsters.2019.INTERNAL.2160p.WEB.H265-DEFLATE 23.29GB-4.png






开通VIP免费下载本站所有资源---点这里
新手必看:资源下载、资源播放、字幕使用、等常见问题---点这里
回复

使用道具 举报

发表于 2019-8-14 19:17:51 | 显示全部楼层

楼主太厉害了!楼主,电影应该很好看我觉得蓝光电影网真是个好地方!
开通VIP免费下载本站所有资源---点这里
新手必看:资源下载、资源播放、字幕使用、等常见问题---点这里
回复 支持 反对

使用道具 举报

发表于 2019-8-14 22:25:04 | 显示全部楼层
这么快就出来了,太厉害了。
开通VIP免费下载本站所有资源---点这里
新手必看:资源下载、资源播放、字幕使用、等常见问题---点这里
回复 支持 反对

使用道具 举报

发表于 2019-8-15 03:00:50 | 显示全部楼层
先谢楼主分享
开通VIP免费下载本站所有资源---点这里
新手必看:资源下载、资源播放、字幕使用、等常见问题---点这里
回复 支持 反对

使用道具 举报

发表于 2019-8-15 03:02:40 | 显示全部楼层
先谢楼主分享:)
开通VIP免费下载本站所有资源---点这里
新手必看:资源下载、资源播放、字幕使用、等常见问题---点这里
回复 支持 反对

使用道具 举报

发表于 2019-8-15 07:40:58 | 显示全部楼层
下载不了,一定要VIP,切,吐槽~~~~~~~~~~~~~~~~~~~~~~~~~~~··
开通VIP免费下载本站所有资源---点这里
新手必看:资源下载、资源播放、字幕使用、等常见问题---点这里
回复 支持 反对

使用道具 举报

发表于 2019-8-15 09:23:54 | 显示全部楼层
多谢楼主分享。辛苦了。
开通VIP免费下载本站所有资源---点这里
新手必看:资源下载、资源播放、字幕使用、等常见问题---点这里
回复 支持 反对

使用道具 举报

发表于 2019-8-15 11:04:13 | 显示全部楼层
l厉害了,期待有更多版本出来!
开通VIP免费下载本站所有资源---点这里
新手必看:资源下载、资源播放、字幕使用、等常见问题---点这里
回复 支持 反对

使用道具 举报

发表于 2019-8-15 13:00:51 | 显示全部楼层
下不了,睡觉觉去
开通VIP免费下载本站所有资源---点这里
新手必看:资源下载、资源播放、字幕使用、等常见问题---点这里
回复 支持 反对

使用道具 举报

发表于 2019-8-15 14:13:17 | 显示全部楼层

这个帖子不回对不起自己!我想我是一天也不能离开蓝光电影网
开通VIP免费下载本站所有资源---点这里
新手必看:资源下载、资源播放、字幕使用、等常见问题---点这里
回复 支持 反对

使用道具 举报

懒得打字嘛,点击右侧快捷回复 【右侧内容,后台自定义】
您需要登录后才可以回帖 登录 | 立即加入

本版积分规则

现在加入蓝光电影网,注册一个账号

QQ| 手机版|小黑屋| 蓝光电影网 |网站地图

Copyright © 2015-2019 Comsenz Inc.  Template by 蓝光电影网 All Rights Reserved.

Powered by 蓝光电影网 X3.4

特别声明:本站所有资源均由网上收集而来,版权归原影音公司所有,如果侵犯了你的权益,请通知我们,我们会及时删除侵权内容.

快速回复 返回顶部 返回列表