找回密码

蓝光电影网

查看: 68|回复: 0

[剧情] 宠物 Pets.1973.1080p.BluRay.x264-SPOOKS 7.66GB

[复制链接]

 成长值: 2710

发表于 2019-8-14 16:07:45 | 显示全部楼层 |阅读模式
宠物 Pets.1973.1080p.BluRay.x264-SPOOKS 7.66GB-1.png

译  名 宠物 / Animal Women - Animalische Frauen / Questo sesso ribelle / Submission
片  名 Pets
年  代 1973
产  地 美国
类  别 剧情
语  言 英语
上映日期 1973-10(美国 麦迪逊)
IMDb评分  6.0/10 from 267 users
IMDb链接  http://www.imdb.com/title/tt0071992
豆瓣评分 0/10 from 0 users
豆瓣链接 https://movie.douban.com/subject/10955322/
片  长 102分钟
导  演 Raphael Nussbaum
编  剧 Raphael Nussbaum / Richard Reich
主  演 艾德·毕肖普 Ed Bishop
       琼·布拉克曼 Joan Blackman
       Candice Rialson
       Teri Guzman
       Frank Parker
       Matt Green
       K.T. Stevens
       Roberto Contreras
       Berry Kroeger
       Rodney Wallace
       George Wells
       Chuck Wells
       Yvonne Alaniz
       Walton Dornisch


标  签 美国 | 情色 | 大闹天使爱美丽城南方公主日落大... | jesusfuckchrist | 美国电影 | 爱情 | 剧情 | 人性

简  介  

  Naive, but brash and sultry teenage runaway Bonnie finds herself lost and adrift in America. The lovely young lass runs afoul of a colorful array of evil oddballs who all treat her like an object: violent criminal Pat makes Bonnie help her kidnap the middle-aged Dan Daubrey; domineering lesbian painter Geraldine Mills wants Bonnie to be her kept girl and uses her as a model; and wicked misogynistic rich sicko Vincent Stackman desires poor Bonnie as the ultimate prized possession in his menagerie of caged female animals he keeps locked up in the basement of his swanky remote mansion.
  1. Video
  2. ID                                       : 1
  3. Format                                   : AVC
  4. Format/Info                              : Advanced Video Codec
  5. Format profile                           : <a href="/cdn-cgi/l/email-protection" class="__cf_email__" data-cfemail="276f4e404f676b130916">[email protected]</a>
  6. Format settings                          : CABAC / 4 Ref Frames
  7. Format settings, CABAC                   : Yes
  8. Format settings, Reference frames        : 4 frames
  9. Codec ID                                 : V_MPEG4/ISO/AVC
  10. Duration                                 : 1 h 41 min
  11. Bit rate                                 : 9 990 kb/s
  12. Width                                    : 1 920 pixels
  13. Height                                   : 1 080 pixels
  14. Display aspect ratio                     : 16:9
  15. Frame rate mode                          : Constant
  16. Frame rate                               : 23.976 (24000/1001) FPS
  17. Color space                              : YUV
  18. Chroma subsampling                       : 4:2:0
  19. Bit depth                                : 8 bits
  20. Scan type                                : Progressive
  21. Bits/(Pixel*Frame)                       : 0.201
  22. Stream size                              : 7.10 GiB (93%)
  23. Writing library                          : x264 core 158 r2984 3759fcb
  24. Encoding settings                        : cabac=1 / ref=4 / deblock=1:-3:-3 / analyse=0x3:0x133 / me=umh / subme=9 / psy=1 / psy_rd=1.00:0.00 / mixed_ref=1 / me_range=24 / chroma_me=1 / trellis=1 / 8x8dct=1 / cqm=0 / deadzone=21,11 / fast_pskip=0 / chroma_qp_offset=-2 / threads=24 / lookahead_threads=4 / sliced_threads=0 / nr=0 / decimate=1 / interlaced=0 / bluray_compat=0 / constrained_intra=0 / bframes=8 / b_pyramid=2 / b_adapt=2 / b_bias=0 / direct=3 / weightb=1 / open_gop=0 / weightp=2 / keyint=250 / keyint_min=23 / scenecut=40 / intra_refresh=0 / rc_lookahead=60 / rc=2pass / mbtree=1 / bitrate=9990 / ratetol=1.0 / qcomp=0.60 / qpmin=0 / qpmax=69 / qpstep=4 / cplxblur=20.0 / qblur=0.5 / vbv_maxrate=62500 / vbv_bufsize=78125 / nal_hrd=none / filler=0 / ip_ratio=1.40 / aq=1:1.00
  25. Default                                  : Yes
  26. Forced                                   : No

  27. Audio
  28. ID                                       : 2
  29. Format                                   : FLAC
  30. Format/Info                              : Free Lossless Audio Codec
  31. Codec ID                                 : A_FLAC
  32. Duration                                 : 1 h 41 min
  33. Bit rate mode                            : Variable
  34. Bit rate                                 : 773 kb/s
  35. Channel(s)                               : 2 channels
  36. Channel layout                           : L R
  37. Sampling rate                            : 48.0 kHz
  38. Frame rate                               : 10.417 FPS (4608 SPF)
  39. Bit depth                                : 24 bits
  40. Compression mode                         : Lossless
  41. Stream size                              : 563 MiB (7%)
  42. Writing library                          : Lavf58.20.100
  43. Language                                 : English
  44. Default                                  : Yes
  45. Forced                                   : No

  46. Menu
  47. 00:00:00.000                             : en:Chapter 01
  48. 00:03:06.520                             : en:Chapter 02
  49. 00:10:35.593                             : en:Chapter 03
  50. 00:22:14.875                             : en:Chapter 04
  51. 00:35:21.911                             : en:Chapter 05
  52. 00:46:46.220                             : en:Chapter 06
  53. 00:57:40.248                             : en:Chapter 07
  54. 01:10:40.528                             : en:Chapter 08
  55. 01:24:26.520                             : en:Chapter 09
  56. 01:35:02.322                             : en:Chapter 10
复制代码

宠物 Pets.1973.1080p.BluRay.x264-SPOOKS 7.66GB-2.png






回复

使用道具 举报

懒得打字嘛,点击右侧快捷回复 【右侧内容,后台自定义】
您需要登录后才可以回帖 登录 | 立即加入

本版积分规则

现在加入蓝光电影网,注册一个账号
上个主题 下个主题 快速回复 收藏帖子 返回列表 客服中心 搜索

QQ| 手机版|小黑屋| 蓝光电影网 |网站地图 

Copyright © 2015-2019 Comsenz Inc.  Template by 蓝光电影论坛 All Rights Reserved.

Powered by 蓝光电影网 X3.4

特别声明:本站所有资源均由网上收集而来,版权归原影音公司所有,如果侵犯了你的权益,请通知我们,我们会及时删除侵权内容.

快速回复 返回顶部 返回列表