找回密码

蓝光电影网

查看: 52|回复: 0

[剧情] 奥菲斯的遗嘱 Testament.of.Orpheus.1960.1080p.BluRay.x264-GHOULS 5.48GB

[复制链接]

 成长值: 2575

发表于 2019-8-14 16:06:33 | 显示全部楼层 |阅读模式
奥菲斯的遗嘱 Testament.of.Orpheus.1960.1080p.BluRay.x264-GHOULS 5.48GB-1.png

译  名 奥菲斯的遗嘱 / Testament of Orpheus / The Testament of Orpheus or Don't Ask Me Why / 俄耳甫斯的遗嘱 / 奥菲斯三部曲之三:奥菲斯的遗嘱 / 奥菲的遗言(台)
片  名 Le testament d'Orphée, ou ne me demandez pas pourquoi!
年  代 1960
产  地 法国
类  别 剧情 / 传记
语  言 法语
上映日期 1960-02-18
IMDb评分  7.3/10 from 2398 users
IMDb链接  http://www.imdb.com/title/tt0054377
豆瓣评分 8.3/10 from 1220 users
豆瓣链接 https://movie.douban.com/subject/1419169/
片  长 Germany: 79 分钟
导  演 Jean Cocteau
编  剧 Jean Cocteau
主  演 Jean Cocteau


标  签 法国 | Jean_Cocteau | 让·科克托 | 法国电影 | JeanCocteau | 超现实主义 | 超现实 | 1960s

简  介  

  剧情梗概:一位18世纪的诗人通过时间隧道到了一个神秘的地方,他遇到了许多让他死亡又让他重生的事物。可是他还是必须面对死亡的洗礼,他还有什么心愿未了吗?
  考克多的银幕绝唱,可视为他私人日记的公开,展现了艺术家、艺术创作以及艺术梦想之间的互相作用,是他向电影艺术的道别。一位18世纪的诗人通过时间隧道到了一个神秘的地方,他遇到了许多让他死亡又让他重生的事物。可是他还是必须面对死亡的洗礼,他还有什么心愿未了吗?
  1. Video
  2. ID                                       : 1
  3. Format                                   : AVC
  4. Format/Info                              : Advanced Video Codec
  5. Format profile                           : <a href="/cdn-cgi/l/email-protection" class="__cf_email__" data-cfemail="246c4d434c6468100a15">High@L4.1</a>
  6. Format settings                          : CABAC / 5 Ref Frames
  7. Format settings, CABAC                   : Yes
  8. Format settings, Reference frames        : 5 frames
  9. Codec ID                                 : V_MPEG4/ISO/AVC
  10. Duration                                 : 1 h 19 min
  11. Bit rate                                 : 9 219 kb/s
  12. Width                                    : 1 488 pixels
  13. Height                                   : 1 080 pixels
  14. Display aspect ratio                     : 1.378
  15. Frame rate mode                          : Constant
  16. Frame rate                               : 24.000 FPS
  17. Color space                              : YUV
  18. Chroma subsampling                       : 4:2:0
  19. Bit depth                                : 8 bits
  20. Scan type                                : Progressive
  21. Bits/(Pixel*Frame)                       : 0.239
  22. Stream size                              : 5.15 GiB (94%)
  23. Writing library                          : x264 core 158 r2984 3759fcb
  24. Encoding settings                        : cabac=1 / ref=5 / deblock=1:-3:-3 / analyse=0x3:0x133 / me=umh / subme=9 / psy=1 / psy_rd=1.00:0.00 / mixed_ref=1 / me_range=24 / chroma_me=1 / trellis=1 / 8x8dct=1 / cqm=0 / deadzone=21,11 / fast_pskip=0 / chroma_qp_offset=-2 / threads=24 / lookahead_threads=4 / sliced_threads=0 / nr=0 / decimate=1 / interlaced=0 / bluray_compat=0 / constrained_intra=0 / bframes=8 / b_pyramid=2 / b_adapt=2 / b_bias=0 / direct=3 / weightb=1 / open_gop=0 / weightp=2 / keyint=250 / keyint_min=24 / scenecut=40 / intra_refresh=0 / rc_lookahead=60 / rc=2pass / mbtree=1 / bitrate=9219 / ratetol=1.0 / qcomp=0.60 / qpmin=0 / qpmax=69 / qpstep=4 / cplxblur=20.0 / qblur=0.5 / vbv_maxrate=62500 / vbv_bufsize=78125 / nal_hrd=none / filler=0 / ip_ratio=1.40 / aq=1:1.00
  25. Default                                  : Yes
  26. Forced                                   : No

  27. Audio
  28. ID                                       : 2
  29. Format                                   : FLAC
  30. Format/Info                              : Free Lossless Audio Codec
  31. Codec ID                                 : A_FLAC
  32. Duration                                 : 1 h 19 min
  33. Bit rate mode                            : Variable
  34. Bit rate                                 : 561 kb/s
  35. Channel(s)                               : 2 channels
  36. Channel layout                           : L R
  37. Sampling rate                            : 48.0 kHz
  38. Frame rate                               : 10.417 FPS (4608 SPF)
  39. Bit depth                                : 24 bits
  40. Compression mode                         : Lossless
  41. Stream size                              : 321 MiB (6%)
  42. Writing library                          : Lavf58.20.100
  43. Language                                 : French
  44. Default                                  : Yes
  45. Forced                                   : No

  46. Text
  47. ID                                       : 3
  48. Format                                   : UTF-8
  49. Codec ID                                 : S_TEXT/UTF8
  50. Codec ID/Info                            : UTF-8 Plain Text
  51. Duration                                 : 1 h 17 min
  52. Bit rate                                 : 33 b/s
  53. Count of elements                        : 733
  54. Stream size                              : 19.4 KiB (0%)
  55. Language                                 : English
  56. Default                                  : Yes
  57. Forced                                   : No

  58. Menu
  59. 00:00:00.000                             : en:Chapter 01
  60. 00:07:58.750                             : en:Chapter 02
  61. 00:15:56.375                             : en:Chapter 03
  62. 00:24:00.000                             : en:Chapter 04
  63. 00:31:28.875                             : en:Chapter 05
  64. 00:40:11.000                             : en:Chapter 06
  65. 00:53:43.708                             : en:Chapter 07
  66. 01:00:16.833                             : en:Chapter 08
  67. 01:09:05.042                             : en:Chapter 09
复制代码

奥菲斯的遗嘱 Testament.of.Orpheus.1960.1080p.BluRay.x264-GHOULS 5.48GB-2.png






回复

使用道具 举报

懒得打字嘛,点击右侧快捷回复 【右侧内容,后台自定义】
您需要登录后才可以回帖 登录 | 立即加入

本版积分规则

现在加入蓝光电影网,注册一个账号
上个主题 下个主题 快速回复 收藏帖子 返回列表 客服中心 搜索

QQ| 手机版|小黑屋| 蓝光电影网 |网站地图 

Copyright © 2015-2019 Comsenz Inc.  Template by 蓝光电影论坛 All Rights Reserved.

Powered by 蓝光电影网 X3.4

特别声明:本站所有资源均由网上收集而来,版权归原影音公司所有,如果侵犯了你的权益,请通知我们,我们会及时删除侵权内容.

快速回复 返回顶部 返回列表