找回密码

蓝光电影网

查看: 86|回复: 1

[纪录] 电子布加洛舞:坎农电影数不尽的狂野故事 Electric.Boogaloo.The.Wild.Untold.Story.Of.Cannon.Films.2014.1080p.BluRay.x264-CREEPSHOW 8.74GB

[复制链接]

 成长值: 2710

发表于 2019-8-14 16:04:41 | 显示全部楼层 |阅读模式
电子布加洛舞:坎农电影数不尽的狂野故事 Electric.Boogaloo.The.Wild.Untold.Story.Of.Cannon.Films.2014.1080p.BluRay.x264-CREEPSHOW 8.74GB-1.png

译  名 电子布加洛舞:坎农电影数不尽的狂野故事
片  名 Electric Boogaloo: The Wild, Untold Story of Cannon Films
年  代 2012
产  地 澳大利亚
类  别 纪录片
语  言 英语
IMDb评分  7.4/10 from 4687 users
IMDb链接  http://www.imdb.com/title/tt2125501
豆瓣评分 0/10 from 0 users
豆瓣链接 https://movie.douban.com/subject/7056425/
片  长 107分钟
导  演 马克·哈特利 Mark Hartley
编  剧 马克·哈特利 Mark Hartley
主  演 奥利薇亚·阿波 Olivia d'Abo
       约翰·G·艾维尔森 John G. Avildsen
       玛蒂妮·贝丝维克 Martine Beswick


标  签 纪录片 | 澳大利亚 | 2012 | B-Movies | 2010s | Documentary | 电影院 | 电影

简  介  

  关于坎农电影公司的历史纪录片。
  The history of the independent film company, The Cannon Film Group, Inc..
  1. Video
  2. ID                                       : 1
  3. Format                                   : AVC
  4. Format/Info                              : Advanced Video Codec
  5. Format profile                           : <a href="/cdn-cgi/l/email-protection" class="__cf_email__" data-cfemail="dd95b4bab59d91e9f3ec">[email protected]</a>
  6. Format settings, CABAC                   : Yes
  7. Format settings, ReFrames                : 4 frames
  8. Codec ID                                 : V_MPEG4/ISO/AVC
  9. Duration                                 : 1 h 46 min
  10. Bit rate                                 : 10.2 Mb/s
  11. Width                                    : 1 920 pixels
  12. Height                                   : 1 080 pixels
  13. Display aspect ratio                     : 16:9
  14. Frame rate mode                          : Constant
  15. Frame rate                               : 23.976 (24000/1001) FPS
  16. Color space                              : YUV
  17. Chroma subsampling                       : 4:2:0
  18. Bit depth                                : 8 bits
  19. Scan type                                : Progressive
  20. Bits/(Pixel*Frame)                       : 0.206
  21. Stream size                              : 7.61 GiB (87%)
  22. Writing library                          : x264 core 146 r2538 121396c
  23. Encoding settings                        : cabac=1 / ref=4 / deblock=1:-2:-2 / analyse=0x3:0x133 / me=umh / subme=9 / psy=1 / psy_rd=1.00:0.00 / mixed_ref=1 / me_range=16 / chroma_me=1 / trellis=1 / 8x8dct=1 / cqm=0 / deadzone=21,11 / fast_pskip=0 / chroma_qp_offset=-2 / threads=6 / lookahead_threads=1 / sliced_threads=0 / nr=0 / decimate=1 / interlaced=0 / bluray_compat=0 / constrained_intra=0 / bframes=3 / b_pyramid=2 / b_adapt=1 / b_bias=0 / direct=1 / weightb=1 / open_gop=0 / weightp=2 / keyint=250 / keyint_min=23 / scenecut=40 / intra_refresh=0 / rc_lookahead=40 / rc=2pass / mbtree=1 / bitrate=10225 / ratetol=1.0 / qcomp=0.60 / qpmin=0 / qpmax=69 / qpstep=4 / cplxblur=20.0 / qblur=0.5 / ip_ratio=1.40 / aq=1:1.00
  24. Default                                  : Yes
  25. Forced                                   : No

  26. Audio
  27. ID                                       : 2
  28. Format                                   : DTS
  29. Format/Info                              : Digital Theater Systems
  30. Mode                                     : 16
  31. Format settings, Endianness              : Big
  32. Codec ID                                 : A_DTS
  33. Duration                                 : 1 h 46 min
  34. Bit rate mode                            : Constant
  35. Bit rate                                 : 1 509 kb/s
  36. Channel(s)                               : 6 channels
  37. Channel positions                        : Front: L C R, Side: L R, LFE
  38. Sampling rate                            : 48.0 kHz
  39. Frame rate                               : 93.750 FPS (512 spf)
  40. Bit depth                                : 24 bits
  41. Compression mode                         : Lossy
  42. Stream size                              : 1.12 GiB (13%)
  43. Language                                 : English
  44. Default                                  : Yes
  45. Forced                                   : No

  46. Menu
  47. 00:00:00.000                             : en:00:00:00.000
  48. 00:09:23.855                             : en:00:09:23.855
  49. 00:16:58.643                             : en:00:16:58.643
  50. 00:26:37.054                             : en:00:26:37.054
  51. 00:34:51.548                             : en:00:34:51.548
  52. 00:44:35.631                             : en:00:44:35.631
  53. 00:54:28.849                             : en:00:54:28.849
  54. 01:02:44.678                             : en:01:02:44.678
  55. 01:10:35.773                             : en:01:10:35.773
  56. 01:21:29.510                             : en:01:21:29.510
  57. 01:30:17.037                             : en:01:30:17.037
  58. 01:36:20.108                             : en:01:36:20.108
复制代码

电子布加洛舞:坎农电影数不尽的狂野故事 Electric.Boogaloo.The.Wild.Untold.Story.Of.Cannon.Films.2014.1080p.BluRay.x264-CREEPSHOW 8.74GB-2.png 电子布加洛舞:坎农电影数不尽的狂野故事 Electric.Boogaloo.The.Wild.Untold.Story.Of.Cannon.Films.2014.1080p.BluRay.x264-CREEPSHOW 8.74GB-3.png 电子布加洛舞:坎农电影数不尽的狂野故事 Electric.Boogaloo.The.Wild.Untold.Story.Of.Cannon.Films.2014.1080p.BluRay.x264-CREEPSHOW 8.74GB-4.png 电子布加洛舞:坎农电影数不尽的狂野故事 Electric.Boogaloo.The.Wild.Untold.Story.Of.Cannon.Films.2014.1080p.BluRay.x264-CREEPSHOW 8.74GB-5.png 电子布加洛舞:坎农电影数不尽的狂野故事 Electric.Boogaloo.The.Wild.Untold.Story.Of.Cannon.Films.2014.1080p.BluRay.x264-CREEPSHOW 8.74GB-6.png 电子布加洛舞:坎农电影数不尽的狂野故事 Electric.Boogaloo.The.Wild.Untold.Story.Of.Cannon.Films.2014.1080p.BluRay.x264-CREEPSHOW 8.74GB-7.png







回复

使用道具 举报

发表于 2019-8-16 23:50:34 | 显示全部楼层

这东西我收了!谢谢楼主!蓝光电影网真好!
回复 支持 反对

使用道具 举报

懒得打字嘛,点击右侧快捷回复 【右侧内容,后台自定义】
您需要登录后才可以回帖 登录 | 立即加入

本版积分规则

现在加入蓝光电影网,注册一个账号
上个主题 下个主题 快速回复 收藏帖子 返回列表 客服中心 搜索

QQ| 手机版|小黑屋| 蓝光电影网 |网站地图 

Copyright © 2015-2019 Comsenz Inc.  Template by 蓝光电影论坛 All Rights Reserved.

Powered by 蓝光电影网 X3.4

特别声明:本站所有资源均由网上收集而来,版权归原影音公司所有,如果侵犯了你的权益,请通知我们,我们会及时删除侵权内容.

快速回复 返回顶部 返回列表