找回密码

蓝光电影网

查看: 62|回复: 0

[喜剧] 蓬松哥:我不是胖…我是福相 Gabriel.Iglesias.Im.Not.Fat.Im.Fluffy.2009.1080p.BluRay.x264-aAF 4.37GB

[复制链接]

 成长值: 2575

发表于 2019-8-14 16:03:11 | 显示全部楼层 |阅读模式
蓬松哥:我不是胖…我是福相 Gabriel.Iglesias.Im.Not.Fat.Im.Fluffy.2009.1080p.BluRay.x264-aAF 4-1.png

译  名 蓬松哥:我不是胖…我是福相
片  名 Gabriel Iglesias: I'm Not Fat... I'm Fluffy
产  地 美国
类  别 喜剧 / 脱口秀
语  言 英语
上映日期 2009
IMDb评分  8.1/10 from 2113 users
IMDb链接  http://www.imdb.com/title/tt1554966
豆瓣评分 9.1/10 from 232 users
豆瓣链接 https://movie.douban.com/subject/5244254/
主  演 Gabriel Iglesias


标  签 脱口秀 | Stand-up | 美国 | GabrielIglesias | 喜剧 | stand-up | Stand-Up | Stand-Up.Comedy

简  介  

  暂无相关剧情介绍
  1. Video
  2. ID                                       : 1
  3. Format                                   : AVC
  4. Format/Info                              : Advanced Video Codec
  5. Format profile                           : <a href="/cdn-cgi/l/email-protection" class="__cf_email__" data-cfemail="9ad2f3fdf2dad6aeb4ab">High@L4.1</a>
  6. Format settings, CABAC                   : Yes
  7. Format settings, ReFrames                : 4 frames
  8. Codec ID                                 : V_MPEG4/ISO/AVC
  9. Duration                                 : 1h 8mn
  10. Bit rate                                 : 8 434 Kbps
  11. Width                                    : 1 920 pixels
  12. Height                                   : 1 080 pixels
  13. Display aspect ratio                     : 16:9
  14. Frame rate mode                          : Constant
  15. Frame rate                               : 29.970 (30000/1001) fps
  16. Color space                              : YUV
  17. Chroma subsampling                       : 4:2:0
  18. Bit depth                                : 8 bits
  19. Scan type                                : Progressive
  20. Bits/(Pixel*Frame)                       : 0.136
  21. Stream size                              : 3.98 GiB (91%)
  22. Writing library                          : x264 core 112 r1867 22bfd31
  23. Encoding settings                        : cabac=1 / ref=4 / deblock=1:0:0 / analyse=0x3:0x133 / me=umh / subme=8 / psy=1 / psy_rd=1.00:0.00 / mixed_ref=1 / me_range=16 / chroma_me=1 / trellis=1 / 8x8dct=1 / cqm=0 / deadzone=21,11 / fast_pskip=0 / chroma_qp_offset=-2 / threads=12 / sliced_threads=0 / nr=0 / decimate=1 / interlaced=0 / constrained_intra=0 / bframes=3 / b_pyramid=2 / b_adapt=1 / b_bias=0 / direct=1 / weightb=1 / open_gop=0 / weightp=2 / keyint=240 / keyint_min=24 / scenecut=40 / intra_refresh=0 / rc_lookahead=40 / rc=2pass / mbtree=1 / bitrate=8434 / ratetol=1.0 / qcomp=0.60 / qpmin=0 / qpmax=51 / qpstep=4 / cplxblur=20.0 / qblur=0.5 / ip_ratio=1.40 / aq=1:1.00
  24. Language                                 : English
  25. Default                                  : No
  26. Forced                                   : No

  27. Audio
  28. ID                                       : 2
  29. Format                                   : AC-3
  30. Format/Info                              : Audio Coding 3
  31. Mode extension                           : CM (complete main)
  32. Format settings, Endianness              : Big
  33. Codec ID                                 : A_AC3
  34. Duration                                 : 1h 8mn
  35. Bit rate mode                            : Constant
  36. Bit rate                                 : 640 Kbps
  37. Channel(s)                               : 6 channels
  38. Channel positions                        : Front: L C R, Side: L R, LFE
  39. Sampling rate                            : 48.0 KHz
  40. Frame rate                               : 31.250 fps (1536 spf)
  41. Compression mode                         : Lossy
  42. Stream size                              : 316 MiB (7%)
  43. Default                                  : Yes
  44. Forced                                   : No

  45. Text
  46. ID                                       : 3
  47. Format                                   : UTF-8
  48. Codec ID                                 : S_TEXT/UTF8
  49. Codec ID/Info                            : UTF-8 Plain Text
  50. Default                                  : Yes
  51. Forced                                   : No
复制代码

蓬松哥:我不是胖…我是福相 Gabriel.Iglesias.Im.Not.Fat.Im.Fluffy.2009.1080p.BluRay.x264-aAF 4-2.png 蓬松哥:我不是胖…我是福相 Gabriel.Iglesias.Im.Not.Fat.Im.Fluffy.2009.1080p.BluRay.x264-aAF 4-3.png 蓬松哥:我不是胖…我是福相 Gabriel.Iglesias.Im.Not.Fat.Im.Fluffy.2009.1080p.BluRay.x264-aAF 4-4.png 蓬松哥:我不是胖…我是福相 Gabriel.Iglesias.Im.Not.Fat.Im.Fluffy.2009.1080p.BluRay.x264-aAF 4-5.png 蓬松哥:我不是胖…我是福相 Gabriel.Iglesias.Im.Not.Fat.Im.Fluffy.2009.1080p.BluRay.x264-aAF 4-6.png 蓬松哥:我不是胖…我是福相 Gabriel.Iglesias.Im.Not.Fat.Im.Fluffy.2009.1080p.BluRay.x264-aAF 4-7.png






回复

使用道具 举报

懒得打字嘛,点击右侧快捷回复 【右侧内容,后台自定义】
您需要登录后才可以回帖 登录 | 立即加入

本版积分规则

现在加入蓝光电影网,注册一个账号
上个主题 下个主题 快速回复 收藏帖子 返回列表 客服中心 搜索

QQ| 手机版|小黑屋| 蓝光电影网 |网站地图 

Copyright © 2015-2019 Comsenz Inc.  Template by 蓝光电影论坛 All Rights Reserved.

Powered by 蓝光电影网 X3.4

特别声明:本站所有资源均由网上收集而来,版权归原影音公司所有,如果侵犯了你的权益,请通知我们,我们会及时删除侵权内容.

快速回复 返回顶部 返回列表