找回密码

蓝光电影网

查看: 72|回复: 0

[纪录] 洛夫克拉夫特:未知的恐惧 Lovecraft.Fear.of.the.Unknown.2008.1080p.BluRay.x264-PUZZLE 8.75GB

[复制链接]

 成长值: 2575

发表于 2019-8-14 16:02:30 | 显示全部楼层 |阅读模式
洛夫克拉夫特:未知的恐惧 Lovecraft.Fear.of.the.Unknown.2008.1080p.BluRay.x264-PUZZLE 8.75GB-1.png

译  名 洛夫克拉夫特:未知的恐惧
片  名 Lovecraft: Fear of the Unknown
年  代 2008
产  地 美国
类  别 纪录片
语  言 英语
上映日期 2008-07-24(美国)
IMDb评分  7.2/10 from 1331 users
IMDb链接  http://www.imdb.com/title/tt1261900
豆瓣评分 8.3/10 from 880 users
豆瓣链接 https://movie.douban.com/subject/3431242/
片  长 90分钟
导  演 Frank H. Woodward
编  剧 Frank H. Woodward
主  演 罗宾·阿特金·唐斯 Robin Atkin Downes
       尼尔·盖曼 Neil Gaiman
       Peter Straub
       吉尔莫·德尔·托罗 Guillermo del Toro
       Ramsey Campbell
       斯图尔特·戈登 Stuart Gordon
       Caitlin R. Kiernan
       S.T. Joshi
       约翰·卡朋特 John Carpenter
       Robert M. Price
       Andrew Migliore
       Hunter Paterra
       Amber Griffin
       Mark Henry
       Isaac Bradley


标  签 纪录片 | 克苏鲁神话 | 美国 | Lovecraft | 克苏鲁 | 奇幻 | 2008 | 人物

简  介  

  Lovecraft's Fear of the Unknown这部纪录片向观众们展示了克苏鲁神话背后的生活、工作和思想。剧本和导演为Frank H. Woodward。制片人为William Janczewski, James B. Myers和Woodward。本片荣获2008年Comic-Con国际独立电影节最佳纪录片奖。
  关于克苏鲁神话
  克苏鲁神话(Cthulhu Mythos)是以霍华德·菲利普·洛夫克拉夫特的小说世界为基础,由奥古斯特·威廉·德雷斯整理完善、诸多作者共同创造的架空神话体系。克苏鲁并非此架空世界中的主神,虽然它是在地球上很常见的信仰,这些神话的题材可能来自世界各地神话传说的再诠释(如北美传说中的雪怪温迪戈(Wendigo))。只要是接受洛夫克拉夫特小说的概念而衍伸创作的小说都可以纳入此神话的一部分,所以此神话系统至今还在扩展,仍有许多新的创作。
  1. Video
  2. ID                                       : 2
  3. Format                                   : AVC
  4. Format/Info                              : Advanced Video Codec
  5. Format profile                           : <a href="/cdn-cgi/l/email-protection" class="__cf_email__" data-cfemail="9ed6f7f9f6ded2aab0af">High@L4.1</a>
  6. Format settings, CABAC                   : Yes
  7. Format settings, ReFrames                : 4 frames
  8. Codec ID                                 : V_MPEG4/ISO/AVC
  9. Duration                                 : 1h 29mn
  10. Bit rate                                 : 13.6 Mbps
  11. Width                                    : 1 920 pixels
  12. Height                                   : 1 080 pixels
  13. Display aspect ratio                     : 16:9
  14. Frame rate mode                          : Constant
  15. Frame rate                               : 23.976 fps
  16. Color space                              : YUV
  17. Chroma subsampling                       : 4:2:0
  18. Bit depth                                : 8 bits
  19. Scan type                                : Progressive
  20. Bits/(Pixel*Frame)                       : 0.273
  21. Stream size                              : 8.29 GiB (95%)
  22. Writing library                          : x264 core 104 r1698 c41b8f0
  23. Encoding settings                        : cabac=1 / ref=4 / deblock=1:0:0 / analyse=0x3:0x133 / me=umh / subme=7 / psy=1 / psy_rd=1.00:0.00 / mixed_ref=1 / me_range=16 / chroma_me=1 / trellis=1 / 8x8dct=1 / cqm=0 / deadzone=21,11 / fast_pskip=0 / chroma_qp_offset=-2 / threads=6 / sliced_threads=0 / nr=0 / decimate=0 / interlaced=0 / constrained_intra=0 / bframes=3 / b_pyramid=2 / b_adapt=1 / b_bias=0 / direct=1 / weightb=1 / open_gop=0 / weightp=2 / keyint=250 / keyint_min=23 / scenecut=40 / intra_refresh=0 / rc_lookahead=40 / rc=2pass / mbtree=1 / bitrate=13561 / ratetol=1.0 / qcomp=0.60 / qpmin=10 / qpmax=51 / qpstep=4 / cplxblur=20.0 / qblur=0.5 / ip_ratio=1.40 / aq=1:1.00
  24. Language                                 : English
  25. Default                                  : No
  26. Forced                                   : No

  27. Audio
  28. ID                                       : 1
  29. Format                                   : AC-3
  30. Format/Info                              : Audio Coding 3
  31. Mode extension                           : CM (complete main)
  32. Format settings, Endianness              : Big
  33. Codec ID                                 : A_AC3
  34. Duration                                 : 1h 29mn
  35. Bit rate mode                            : Constant
  36. Bit rate                                 : 448 Kbps
  37. Channel(s)                               : 2 channels
  38. Channel positions                        : Front: L R
  39. Sampling rate                            : 48.0 KHz
  40. Frame rate                               : 31.250 fps (1536 spf)
  41. Compression mode                         : Lossy
  42. Stream size                              : 286 MiB (3%)
  43. Language                                 : English
  44. Default                                  : Yes
  45. Forced                                   : No
复制代码

洛夫克拉夫特:未知的恐惧 Lovecraft.Fear.of.the.Unknown.2008.1080p.BluRay.x264-PUZZLE 8.75GB-2.png 洛夫克拉夫特:未知的恐惧 Lovecraft.Fear.of.the.Unknown.2008.1080p.BluRay.x264-PUZZLE 8.75GB-3.png 洛夫克拉夫特:未知的恐惧 Lovecraft.Fear.of.the.Unknown.2008.1080p.BluRay.x264-PUZZLE 8.75GB-4.png 洛夫克拉夫特:未知的恐惧 Lovecraft.Fear.of.the.Unknown.2008.1080p.BluRay.x264-PUZZLE 8.75GB-5.png 洛夫克拉夫特:未知的恐惧 Lovecraft.Fear.of.the.Unknown.2008.1080p.BluRay.x264-PUZZLE 8.75GB-6.png 洛夫克拉夫特:未知的恐惧 Lovecraft.Fear.of.the.Unknown.2008.1080p.BluRay.x264-PUZZLE 8.75GB-7.png






回复

使用道具 举报

懒得打字嘛,点击右侧快捷回复 【右侧内容,后台自定义】
您需要登录后才可以回帖 登录 | 立即加入

本版积分规则

现在加入蓝光电影网,注册一个账号
上个主题 下个主题 快速回复 收藏帖子 返回列表 客服中心 搜索

QQ| 手机版|小黑屋| 蓝光电影网 |网站地图 

Copyright © 2015-2019 Comsenz Inc.  Template by 蓝光电影论坛 All Rights Reserved.

Powered by 蓝光电影网 X3.4

特别声明:本站所有资源均由网上收集而来,版权归原影音公司所有,如果侵犯了你的权益,请通知我们,我们会及时删除侵权内容.

快速回复 返回顶部 返回列表