找回密码

蓝光电影网

查看: 71|回复: 0

[纪录] 什么是电影? What.Is.Cinema.2013.1080p.BluRay.x264-BiPOLAR 6.57GB

[复制链接]

 成长值: 2575

发表于 2019-8-14 15:56:43 | 显示全部楼层 |阅读模式
什么是电影? What.Is.Cinema.2013.1080p.BluRay.x264-BiPOLAR 6.57GB-1.png

译  名 什么是电影? / Qu'est ce que le cinéma?
片  名 What Is Cinema?
年  代 2013
产  地 美国
类  别 纪录片
语  言 英语
上映日期 2013-06-06
IMDb评分  6.1/10 from 281 users
IMDb链接  http://www.imdb.com/title/tt3016642
豆瓣评分 6.3/10 from 44 users
豆瓣链接 https://movie.douban.com/subject/25706976/
片  长 83分钟
导  演 Chuck Workman
主  演 大卫·林奇 David Lynch
       香特尔·阿克曼 Chantal Akerman
       迈克·李 Mike Leigh
       乔纳斯·梅卡斯 Jonas Mekas
       罗伯特·奥特曼 Robert Altman
       罗伯特·布列松 Robert Bresson
       科斯塔-加夫拉斯 Costa-Gavras
       罗伯·爱泼斯坦 Rob Epstein
       詹姆斯·弗兰科 James Franco
       阿尔弗雷德·希区柯克 Alfred Hitchcock
       肯·雅各布斯 Ken Jacobs
       伊冯?雷奈尔 Yvonne Rainer
       比尔·维奥拉 Bill Viola
       凯莉·雷查德 Kelly Reichardt


标  签 纪录片 | 美国 | Documentary | 电影理论 | 2013 | 纪录 | 很想看 | 2010s

简  介  

  Featuring interviews with the likes of Hitchcock, Kurosawa, Robert Bresson and David Lynch, What is Cinema? is documentarian Chuck Workman’s engrossing visual essay about mastery of cinematic form. Our world premiere will be followed by a live conversation with Workman.
  1. Video
  2. ID                                       : 1
  3. Format                                   : AVC
  4. Format/Info                              : Advanced Video Codec
  5. Format profile                           : <a href="/cdn-cgi/l/email-protection" class="__cf_email__" data-cfemail="0840616f6048443c2639">High@L4.1</a>
  6. Format settings, CABAC                   : Yes
  7. Format settings, ReFrames                : 4 frames
  8. Codec ID                                 : V_MPEG4/ISO/AVC
  9. Duration                                 : 1h 17mn
  10. Bit rate                                 : 10.6 Mbps
  11. Width                                    : 1 920 pixels
  12. Height                                   : 1 080 pixels
  13. Display aspect ratio                     : 16:9
  14. Frame rate mode                          : Constant
  15. Frame rate                               : 23.976 (24000/1001) fps
  16. Color space                              : YUV
  17. Chroma subsampling                       : 4:2:0
  18. Bit depth                                : 8 bits
  19. Scan type                                : Progressive
  20. Bits/(Pixel*Frame)                       : 0.213
  21. Stream size                              : 5.74 GiB (87%)
  22. Writing library                          : x264 core 148 r2744 b97ae06
  23. Encoding settings                        : cabac=1 / ref=4 / deblock=1:-3:-3 / analyse=0x3:0x133 / me=umh / subme=9 / psy=1 / psy_rd=1.00:0.00 / mixed_ref=1 / me_range=16 / chroma_me=1 / trellis=2 / 8x8dct=1 / cqm=0 / deadzone=21,11 / fast_pskip=0 / chroma_qp_offset=-2 / threads=34 / lookahead_threads=2 / sliced_threads=0 / nr=0 / decimate=1 / interlaced=0 / bluray_compat=0 / constrained_intra=0 / bframes=3 / b_pyramid=2 / b_adapt=1 / b_bias=0 / direct=3 / weightb=1 / open_gop=0 / weightp=2 / keyint=250 / keyint_min=23 / scenecut=40 / intra_refresh=0 / rc_lookahead=50 / rc=2pass / mbtree=1 / bitrate=10571 / ratetol=1.0 / qcomp=0.60 / qpmin=0 / qpmax=69 / qpstep=4 / cplxblur=20.0 / qblur=0.5 / ip_ratio=1.40 / aq=1:1.00
  24. Language                                 : English
  25. Default                                  : Yes
  26. Forced                                   : No

  27. Audio
  28. ID                                       : 2
  29. Format                                   : DTS
  30. Format/Info                              : Digital Theater Systems
  31. Mode                                     : 16
  32. Format settings, Endianness              : Big
  33. Codec ID                                 : A_DTS
  34. Duration                                 : 1h 17mn
  35. Bit rate mode                            : Constant
  36. Bit rate                                 : 1 509 Kbps
  37. Channel(s)                               : 6 channels
  38. Channel positions                        : Front: L C R, Side: L R, LFE
  39. Sampling rate                            : 48.0 KHz
  40. Frame rate                               : 93.750 fps (512 spf)
  41. Bit depth                                : 24 bits
  42. Compression mode                         : Lossy
  43. Stream size                              : 839 MiB (12%)
  44. Language                                 : English
  45. Default                                  : Yes
  46. Forced                                   : No

  47. Menu
  48. 00:00:00.000                             : en:00:00:00.000
  49. 00:05:28.286                             : en:00:05:28.286
  50. 00:12:23.826                             : en:00:12:23.826
  51. 00:20:41.532                             : en:00:20:41.532
  52. 00:32:23.275                             : en:00:32:23.275
  53. 00:40:48.780                             : en:00:40:48.780
  54. 00:50:17.556                             : en:00:50:17.556
  55. 00:57:58.850                             : en:00:57:58.850
  56. 01:08:40.116                             : en:01:08:40.116
  57. 01:12:48.531                             : en:01:12:48.531
复制代码

什么是电影? What.Is.Cinema.2013.1080p.BluRay.x264-BiPOLAR 6.57GB-2.png






回复

使用道具 举报

懒得打字嘛,点击右侧快捷回复 【右侧内容,后台自定义】
您需要登录后才可以回帖 登录 | 立即加入

本版积分规则

现在加入蓝光电影网,注册一个账号
上个主题 下个主题 快速回复 收藏帖子 返回列表 客服中心 搜索

QQ| 手机版|小黑屋| 蓝光电影网 |网站地图 

Copyright © 2015-2019 Comsenz Inc.  Template by 蓝光电影论坛 All Rights Reserved.

Powered by 蓝光电影网 X3.4

特别声明:本站所有资源均由网上收集而来,版权归原影音公司所有,如果侵犯了你的权益,请通知我们,我们会及时删除侵权内容.

快速回复 返回顶部 返回列表