找回密码

蓝光电影网

查看: 71|回复: 1

[纪录] 当你觉得陌生/当你还是陌生人时 When.Youre.Strange.A.Film.About.The.Doors.2009.1080p.BluRay.x264-SEMTEX 8.72GB

[复制链接]

 成长值: 2575

发表于 2019-8-14 15:52:58 | 显示全部楼层 |阅读模式
当你觉得陌生/当你还是陌生人时 When.Youre.Strange.A.Film.About.The.Doors.2009.1080p.BluRay.x264-SEMTEX 8.72GB-1.png

译  名 当你觉得陌生 / 当你还是陌生人时
片  名 When You're Strange
年  代 2009
产  地 美国
类  别 纪录片 / 音乐
语  言 英语
上映日期 2009
IMDb评分  7.7/10 from 8657 users
IMDb链接  http://www.imdb.com/title/tt1333667
豆瓣评分 8.6/10 from 1022 users
豆瓣链接 https://movie.douban.com/subject/4007879/
片  长 86 分钟
导  演 Tom DiCillo
主  演 John Densmore
       Robby Krieger
       Ray Manzarek
       Jim Morrison


标  签 纪录片 | TheDoors | 摇滚 | 美国 | 音乐 | JohnnyDepp | Documentary | 美国电影

简  介  

  A chronological look at The Doors, focusing on lead singer, Jim Morrison (1943-1971), from the formation of the band in 1965, it's first gigs, and first album, to Morrison's death, after years of alcohol and drug use. Along the journey, we see archival footage of rehearsals, performances, and private moments including a Miami concert resulting in Morrison's arrest and trial for indecency. His love of the spotlight, his desire to be a poet, and his alcohol-fueled mood swings lead to a back and forth between public and private desires, successes, and failures. The band's music plays throughout.
  1. Video
  2. ID                                       : 1
  3. Format                                   : AVC
  4. Format/Info                              : Advanced Video Codec
  5. Format profile                           : <a href="/cdn-cgi/l/email-protection" class="__cf_email__" data-cfemail="571f3e303f171b637966">High@L4.1</a>
  6. Format settings, CABAC                   : Yes
  7. Format settings, ReFrames                : 4 frames
  8. Codec ID                                 : V_MPEG4/ISO/AVC
  9. Duration                                 : 1h 25mn
  10. Bit rate mode                            : Variable
  11. Bit rate                                 : 13.2 Mbps
  12. Maximum bit rate                         : 25.0 Mbps
  13. Width                                    : 1 920 pixels
  14. Height                                   : 1 080 pixels
  15. Display aspect ratio                     : 16:9
  16. Frame rate mode                          : Constant
  17. Frame rate                               : 23.976 (24000/1001) fps
  18. Color space                              : YUV
  19. Chroma subsampling                       : 4:2:0
  20. Bit depth                                : 8 bits
  21. Scan type                                : Progressive
  22. Bits/(Pixel*Frame)                       : 0.265
  23. Stream size                              : 7.65 GiB (88%)
  24. Writing library                          : x264 core 100 r1659 57b2e56
  25. Encoding settings                        : cabac=1 / ref=4 / deblock=1:0:0 / analyse=0x3:0x133 / me=umh / subme=7 / psy=1 / psy_rd=1.00:0.00 / mixed_ref=1 / me_range=16 / chroma_me=1 / trellis=1 / 8x8dct=1 / cqm=0 / deadzone=21,11 / fast_pskip=1 / chroma_qp_offset=-2 / threads=12 / sliced_threads=0 / nr=0 / decimate=1 / interlaced=0 / constrained_intra=0 / bframes=4 / b_pyramid=0 / b_adapt=1 / b_bias=0 / direct=1 / weightb=1 / open_gop=0 / weightp=2 / keyint=240 / keyint_min=24 / scenecut=40 / intra_refresh=0 / rc_lookahead=40 / rc=2pass / mbtree=1 / bitrate=13155 / ratetol=1.0 / qcomp=0.60 / qpmin=10 / qpmax=51 / qpstep=4 / cplxblur=20.0 / qblur=0.5 / vbv_maxrate=25000 / vbv_bufsize=25000 / ip_ratio=1.40 / aq=1:1.00 / nal_hrd=vbr
  26. Default                                  : Yes
  27. Forced                                   : No

  28. Audio
  29. ID                                       : 2
  30. Format                                   : DTS
  31. Format/Info                              : Digital Theater Systems
  32. Mode                                     : 16
  33. Format settings, Endianness              : Big
  34. Codec ID                                 : A_DTS
  35. Duration                                 : 1h 25mn
  36. Bit rate mode                            : Constant
  37. Bit rate                                 : 1 509 Kbps
  38. Channel(s)                               : 6 channels
  39. Channel positions                        : Front: L C R, Side: L R, LFE
  40. Sampling rate                            : 48.0 KHz
  41. Frame rate                               : 93.750 fps (512 spf)
  42. Bit depth                                : 24 bits
  43. Compression mode                         : Lossy
  44. Stream size                              : 922 MiB (10%)
  45. Language                                 : English
  46. Default                                  : Yes
  47. Forced                                   : No
复制代码

当你觉得陌生/当你还是陌生人时 When.Youre.Strange.A.Film.About.The.Doors.2009.1080p.BluRay.x264-SEMTEX 8.72GB-2.png 当你觉得陌生/当你还是陌生人时 When.Youre.Strange.A.Film.About.The.Doors.2009.1080p.BluRay.x264-SEMTEX 8.72GB-3.png 当你觉得陌生/当你还是陌生人时 When.Youre.Strange.A.Film.About.The.Doors.2009.1080p.BluRay.x264-SEMTEX 8.72GB-4.png 当你觉得陌生/当你还是陌生人时 When.Youre.Strange.A.Film.About.The.Doors.2009.1080p.BluRay.x264-SEMTEX 8.72GB-5.png 当你觉得陌生/当你还是陌生人时 When.Youre.Strange.A.Film.About.The.Doors.2009.1080p.BluRay.x264-SEMTEX 8.72GB-6.png 当你觉得陌生/当你还是陌生人时 When.Youre.Strange.A.Film.About.The.Doors.2009.1080p.BluRay.x264-SEMTEX 8.72GB-7.png






回复

使用道具 举报

发表于 2019-8-14 20:31:59 | 显示全部楼层

楼主太厉害了!楼主,电影应该很好看我觉得蓝光电影网真是个好地方!
回复 支持 反对

使用道具 举报

懒得打字嘛,点击右侧快捷回复 【右侧内容,后台自定义】
您需要登录后才可以回帖 登录 | 立即加入

本版积分规则

现在加入蓝光电影网,注册一个账号
上个主题 下个主题 快速回复 收藏帖子 返回列表 客服中心 搜索

QQ| 手机版|小黑屋| 蓝光电影网 |网站地图 

Copyright © 2015-2019 Comsenz Inc.  Template by 蓝光电影论坛 All Rights Reserved.

Powered by 蓝光电影网 X3.4

特别声明:本站所有资源均由网上收集而来,版权归原影音公司所有,如果侵犯了你的权益,请通知我们,我们会及时删除侵权内容.

快速回复 返回顶部 返回列表