找回密码

蓝光电影网

查看: 116|回复: 1

[音乐] 糟糕的女儿 Bloody.Daughter.2012.1080p.BluRay.x264-HANDJOB 8.16GB

[复制链接]

 成长值: 2710

发表于 2019-8-14 15:51:46 | 显示全部楼层 |阅读模式
糟糕的女儿 Bloody.Daughter.2012.1080p.BluRay.x264-HANDJOB 8.16GB-1.png

译  名 糟糕的女儿
片  名 Bloody Daughter
年  代 2012
产  地 法国 / Switzerland
类  别 音乐
语  言 英语 / 西班牙语 / 法语 / 日语
上映日期 2012-09-01(意大利)
IMDb评分  7.1/10 from 174 users
IMDb链接  http://www.imdb.com/title/tt2566350
豆瓣评分 8.1/10 from 68 users
豆瓣链接 https://movie.douban.com/subject/24703938/
导  演 Stéphanie Argerich
主  演 玛尔塔·阿赫里奇 Martha Argerich
       Stephen Kovacevitch
       Lyda Chen
       Anne Dutoit


标  签 纪录片 | 音乐 | Argerich | 法国 | 2012 | Documentary | 紀錄片 | Kovacevich

简  介  

  The mother through the daughter's eyes - A family portrait blending intimate conversations, agreements and disagreements, and shred ties of sounds and blood. An intimate portrait of two musical giants. This documentary by Martha Argerich's daughter Stéphanie has been filmed in several countries: Poland, where Martha Argerich chairs the judges of the International Chopin competition and gives several recitals with her close friend Nelson Freire; Japan, which hosts a unique Argerich festival; The United Kingdom, where Stephen Kovacevitch, the father of Stéphanie, lives; Belgium, where Martha and Stéphanie lived together for several years; Argentina, where Martha was born (in Buenos Aires); Switzerland, where Martha and Stéphanie are currently living; France, where the grandmother's apartment still houses valuable treasures. Made up of documentary sequences focusing on the two characters of Martha and Stephen in their everyday lifes, in rehearsal and in performance, the film will be largely given over to intimate conversations (filmed by Stephanie herself, alone or with one or other of her parents), delicious anecdotes, and a few scenes in which we will see the family reunited. @ EuroArts
  1. Video
  2. ID                                       : 1
  3. Format                                   : AVC
  4. Format/Info                              : Advanced Video Codec
  5. Format profile                           : <a href="/cdn-cgi/l/email-protection" class="__cf_email__" data-cfemail="0b43626c634b473f253a">[email protected]</a>
  6. Format settings                          : CABAC / 4 Ref Frames
  7. Format settings, CABAC                   : Yes
  8. Format settings, Reference frames        : 4 frames
  9. Codec ID                                 : V_MPEG4/ISO/AVC
  10. Duration                                 : 1 h 35 min
  11. Bit rate                                 : 11.6 Mb/s
  12. Width                                    : 1 916 pixels
  13. Height                                   : 1 080 pixels
  14. Display aspect ratio                     : 16:9
  15. Frame rate mode                          : Constant
  16. Frame rate                               : 29.970 (30000/1001) FPS
  17. Color space                              : YUV
  18. Chroma subsampling                       : 4:2:0
  19. Bit depth                                : 8 bits
  20. Scan type                                : Progressive
  21. Bits/(Pixel*Frame)                       : 0.186
  22. Stream size                              : 7.73 GiB (95%)
  23. Writing library                          : x264 core 157 r2935 545de2f
  24. Encoding settings                        : cabac=1 / ref=4 / deblock=1:-3:-3 / analyse=0x3:0x133 / me=umh / subme=9 / psy=1 / psy_rd=1.00:0.00 / mixed_ref=1 / me_range=24 / chroma_me=1 / trellis=2 / 8x8dct=1 / cqm=0 / deadzone=21,11 / fast_pskip=0 / chroma_qp_offset=-2 / threads=18 / lookahead_threads=2 / sliced_threads=0 / nr=0 / decimate=1 / interlaced=0 / bluray_compat=0 / constrained_intra=0 / bframes=5 / b_pyramid=2 / b_adapt=2 / b_bias=0 / direct=3 / weightb=1 / open_gop=0 / weightp=2 / keyint=300 / keyint_min=30 / scenecut=40 / intra_refresh=0 / rc_lookahead=50 / rc=crf / mbtree=0 / crf=19.8 / qcomp=0.60 / qpmin=0 / qpmax=69 / qpstep=4 / vbv_maxrate=62500 / vbv_bufsize=78125 / crf_max=0.0 / nal_hrd=none / filler=0 / ip_ratio=1.40 / pb_ratio=1.30 / aq=2:1.00
  25. Default                                  : Yes
  26. Forced                                   : No
  27. Color range                              : Limited
  28. Color primaries                          : BT.709
  29. Transfer characteristics                 : BT.709
  30. Matrix coefficients                      : BT.709

  31. Audio
  32. ID                                       : 2
  33. Format                                   : AC-3
  34. Format/Info                              : Audio Coding 3
  35. Commercial name                          : Dolby Digital
  36. Codec ID                                 : A_AC3
  37. Duration                                 : 1 h 35 min
  38. Bit rate mode                            : Constant
  39. Bit rate                                 : 640 kb/s
  40. Channel(s)                               : 6 channels
  41. Channel layout                           : L R C LFE Ls Rs
  42. Sampling rate                            : 48.0 kHz
  43. Frame rate                               : 31.250 FPS (1536 SPF)
  44. Bit depth                                : 16 bits
  45. Compression mode                         : Lossy
  46. Stream size                              : 438 MiB (5%)
  47. Language                                 : English
  48. Service kind                             : Complete Main
  49. Default                                  : Yes
  50. Forced                                   : No

  51. Text
  52. ID                                       : 3
  53. Format                                   : UTF-8
  54. Codec ID                                 : S_TEXT/UTF8
  55. Codec ID/Info                            : UTF-8 Plain Text
  56. Duration                                 : 1 h 32 min
  57. Bit rate                                 : 31 b/s
  58. Count of elements                        : 656
  59. Stream size                              : 21.4 KiB (0%)
  60. Language                                 : English
  61. Default                                  : Yes
  62. Forced                                   : No

  63. Menu
  64. 00:00:00.000                             : :Chapter 1
  65. 00:05:53.220                             : :Chapter 2
  66. 00:12:48.167                             : :Chapter 3
  67. 00:21:35.528                             : :Chapter 4
  68. 00:28:12.257                             : :Chapter 5
  69. 00:37:49.000                             : :Chapter 6
  70. 00:50:02.199                             : :Chapter 7
  71. 01:00:49.946                             : :Chapter 8
  72. 01:11:00.156                             : :Chapter 9
  73. 01:22:22.004                             : :Chapter 10
  74. 01:29:24.059                             : :Chapter 11
  75. 01:32:37.085                             : :Chapter 12
复制代码

糟糕的女儿 Bloody.Daughter.2012.1080p.BluRay.x264-HANDJOB 8.16GB-2.png 糟糕的女儿 Bloody.Daughter.2012.1080p.BluRay.x264-HANDJOB 8.16GB-3.png 糟糕的女儿 Bloody.Daughter.2012.1080p.BluRay.x264-HANDJOB 8.16GB-4.png






回复

使用道具 举报

发表于 2019-8-16 12:40:46 | 显示全部楼层
感谢楼主的分享!
回复 支持 反对

使用道具 举报

懒得打字嘛,点击右侧快捷回复 【右侧内容,后台自定义】
您需要登录后才可以回帖 登录 | 立即加入

本版积分规则

现在加入蓝光电影网,注册一个账号
上个主题 下个主题 快速回复 收藏帖子 返回列表 客服中心 搜索

QQ| 手机版|小黑屋| 蓝光电影网 |网站地图 

Copyright © 2015-2019 Comsenz Inc.  Template by 蓝光电影论坛 All Rights Reserved.

Powered by 蓝光电影网 X3.4

特别声明:本站所有资源均由网上收集而来,版权归原影音公司所有,如果侵犯了你的权益,请通知我们,我们会及时删除侵权内容.

快速回复 返回顶部 返回列表