找回密码

蓝光电影网

查看: 64|回复: 0

[动画] 森林大帝 Jungle.Emperor.Leo.1997.1080p.BluRay.x264-W4F 5.46GB

[复制链接]

 成长值: 955

发表于 7 天前 | 显示全部楼层 |阅读模式
森林大帝 Jungle.Emperor.Leo.1997.1080p.BluRay.x264-W4F 5.46GB-1.png

译  名 森林大帝 / Jungle Emperor Leo
片  名 ジャングル大帝
年  代 1997
产  地 日本
类  别 动画
语  言 日语
上映日期 1997-08-01
IMDb评分  7.0/10 from 333 users
IMDb链接  http://www.imdb.com/title/tt0119406
豆瓣评分 8.4/10 from 563 users
豆瓣链接 https://movie.douban.com/subject/1970753/
片  长 100 分钟
导  演 竹内启雄
编  剧 手塚治虫
主  演 津嘉山正种 Masane Tsukayama
       柊美冬
       富田耕生 Kousei Tomita
       倍赏千惠子 Chieko Baish?


标  签 动画 | 日本 | 手塚治虫 | 日本动画 | 童年 | 童年回忆 | 经典 | 日本动画·剧场版

简  介  

  暂无相关剧情介绍
  1. Video
  2. ID                                       : 1
  3. Format                                   : AVC
  4. Format/Info                              : Advanced Video Codec
  5. Format profile                           : <a href="/cdn-cgi/l/email-protection" class="__cf_email__" data-cfemail="4b03222c230b077f657a">[email protected]</a>
  6. Format settings                          : CABAC / 4 Ref Frames
  7. Format settings, CABAC                   : Yes
  8. Format settings, Reference frames        : 4 frames
  9. Codec ID                                 : V_MPEG4/ISO/AVC
  10. Duration                                 : 1 h 38 min
  11. Bit rate                                 : 6 087 kb/s
  12. Width                                    : 1 920 pixels
  13. Height                                   : 1 080 pixels
  14. Display aspect ratio                     : 16:9
  15. Frame rate mode                          : Constant
  16. Frame rate                               : 23.976 (24000/1001) FPS
  17. Color space                              : YUV
  18. Chroma subsampling                       : 4:2:0
  19. Bit depth                                : 8 bits
  20. Scan type                                : Progressive
  21. Bits/(Pixel*Frame)                       : 0.122
  22. Stream size                              : 4.21 GiB (77%)
  23. Writing library                          : x264 core 148 r2744 b97ae06
  24. Encoding settings                        : cabac=1 / ref=4 / deblock=1:1:1 / analyse=0x3:0x113 / me=umh / subme=8 / psy=1 / psy_rd=0.40:0.00 / mixed_ref=1 / me_range=24 / chroma_me=1 / trellis=1 / 8x8dct=1 / cqm=0 / deadzone=21,11 / fast_pskip=1 / chroma_qp_offset=-2 / threads=30 / lookahead_threads=5 / sliced_threads=0 / nr=0 / decimate=1 / interlaced=0 / bluray_compat=0 / constrained_intra=0 / bframes=5 / b_pyramid=2 / b_adapt=1 / b_bias=0 / direct=3 / weightb=1 / open_gop=0 / weightp=2 / keyint=240 / keyint_min=24 / scenecut=40 / intra_refresh=0 / rc_lookahead=50 / rc=2pass / mbtree=1 / bitrate=6087 / ratetol=1.0 / qcomp=0.60 / qpmin=0 / qpmax=69 / qpstep=4 / cplxblur=20.0 / qblur=0.5 / ip_ratio=1.40 / aq=1:0.60
  25. Default                                  : Yes
  26. Forced                                   : No

  27. Audio #1
  28. ID                                       : 2
  29. Format                                   : FLAC
  30. Format/Info                              : Free Lossless Audio Codec
  31. Codec ID                                 : A_FLAC
  32. Duration                                 : 1 h 38 min
  33. Bit rate mode                            : Variable
  34. Bit rate                                 : 1 422 kb/s
  35. Channel(s)                               : 2 channels
  36. Channel layout                           : L R
  37. Sampling rate                            : 48.0 kHz
  38. Frame rate                               : 11.719 FPS (4096 SPF)
  39. Bit depth                                : 24 bits
  40. Compression mode                         : Lossless
  41. Stream size                              : 1 006 MiB (18%)
  42. Writing library                          : libFLAC 1.2.1 (UTC 2007-09-17)
  43. Language                                 : Japanese
  44. Default                                  : Yes
  45. Forced                                   : No

  46. Audio #2
  47. ID                                       : 3
  48. Format                                   : FLAC
  49. Format/Info                              : Free Lossless Audio Codec
  50. Codec ID                                 : A_FLAC
  51. Duration                                 : 1 h 39 min
  52. Bit rate mode                            : Variable
  53. Bit rate                                 : 389 kb/s
  54. Channel(s)                               : 2 channels
  55. Channel layout                           : L R
  56. Sampling rate                            : 48.0 kHz
  57. Frame rate                               : 11.719 FPS (4096 SPF)
  58. Bit depth                                : 16 bits
  59. Compression mode                         : Lossless
  60. Stream size                              : 277 MiB (5%)
  61. Writing library                          : libFLAC 1.2.1 (UTC 2007-09-17)
  62. Language                                 : English
  63. Default                                  : No
  64. Forced                                   : No

  65. Text #1
  66. ID                                       : 4
  67. Format                                   : UTF-8
  68. Codec ID                                 : S_TEXT/UTF8
  69. Codec ID/Info                            : UTF-8 Plain Text
  70. Duration                                 : 1 h 37 min
  71. Bit rate                                 : 35 b/s
  72. Count of elements                        : 1030
  73. Stream size                              : 25.1 KiB (0%)
  74. Title                                    : Full subs for Japanese audio
  75. Language                                 : English
  76. Default                                  : Yes
  77. Forced                                   : No

  78. Text #2
  79. ID                                       : 5
  80. Format                                   : UTF-8
  81. Codec ID                                 : S_TEXT/UTF8
  82. Codec ID/Info                            : UTF-8 Plain Text
  83. Duration                                 : 1 h 35 min
  84. Bit rate                                 : 1 b/s
  85. Count of elements                        : 31
  86. Stream size                              : 1.33 KiB (0%)
  87. Title                                    : Forced subs for English audio
  88. Language                                 : English
  89. Default                                  : No
  90. Forced                                   : No

  91. Menu
  92. 00:00:00.000                             : en:00:00:00.000
  93. 00:06:06.616                             : en:00:06:06.616
  94. 00:19:16.781                             : en:00:19:16.781
  95. 00:26:08.525                             : en:00:26:08.525
  96. 00:36:09.042                             : en:00:36:09.042
  97. 00:47:07.408                             : en:00:47:07.408
  98. 00:56:35.684                             : en:00:56:35.684
  99. 01:04:07.510                             : en:01:04:07.510
  100. 01:15:44.081                             : en:01:15:44.081
  101. 01:22:44.460                             : en:01:22:44.460
  102. 01:32:00.598                             : en:01:32:00.598
  103. 01:33:53.128                             : en:01:33:53.128
复制代码

森林大帝 Jungle.Emperor.Leo.1997.1080p.BluRay.x264-W4F 5.46GB-2.png 森林大帝 Jungle.Emperor.Leo.1997.1080p.BluRay.x264-W4F 5.46GB-3.png 森林大帝 Jungle.Emperor.Leo.1997.1080p.BluRay.x264-W4F 5.46GB-4.png






开通VIP免费下载本站所有资源---点这里
新手必看:资源下载、资源播放、字幕使用、等常见问题---点这里
回复

使用道具 举报

懒得打字嘛,点击右侧快捷回复 【右侧内容,后台自定义】
您需要登录后才可以回帖 登录 | 立即加入

本版积分规则

现在加入蓝光电影网,注册一个账号

QQ| 手机版|小黑屋| 蓝光电影网 |网站地图

Copyright © 2015-2019 Comsenz Inc.  Template by 蓝光电影网 All Rights Reserved.

Powered by 蓝光电影网 X3.4

特别声明:本站所有资源均由网上收集而来,版权归原影音公司所有,如果侵犯了你的权益,请通知我们,我们会及时删除侵权内容.

快速回复 返回顶部 返回列表