找回密码

蓝光电影网

查看: 134|回复: 2

[剧情] 梦魇之瞳 All.The.Colours.Of.The.Dark.1972.1080p.BluRay.x264-MOOVEE 6.56GB

[复制链接]

 成长值: 1015

发表于 2019-8-13 17:31:23 | 显示全部楼层 |阅读模式
梦魇之瞳 All.The.Colours.Of.The.Dark.1972.1080p.BluRay.x264-MOOVEE 6.56GB-1.jpg

译  名 梦魇之瞳 / All the Colors of the Dark
片  名 Tutti i colori del buio
年  代 1972
产  地 意大利 / 西班牙
类  别 悬疑 / 惊悚 / 恐怖
语  言 意大利语
上映日期 1972-02-28
IMDb评分  6.7/10 from 2573 users
IMDb链接  http://www.imdb.com/title/tt0069390
豆瓣评分 6.0/10 from 141 users
豆瓣链接 https://movie.douban.com/subject/1296513/
片  长 USA: 88 分钟
导  演 塞尔吉奥·马蒂诺 Sergio Martino
编  剧 耶尔迈斯托·加斯塔尔迪 Ernesto Gastaldi / Santiago Moncada / Sauro Scavolini
主  演 艾德薇姬·芬妮齐 Edwige Fenech


标  签 意大利 | 恐怖 | giallo | 惊悚 | 1972 | 1970s | 艾德薇姬·芬妮齐 | 悬疑

简  介  

  A woman recovering from a car accident in which she lost her unborn child finds herself pursued by a coven of devil worshipers.
  1. Video
  2. ID                                       : 1
  3. Format                                   : AVC
  4. Format/Info                              : Advanced Video Codec
  5. Format profile                           : <a href="/cdn-cgi/l/email-protection" class="__cf_email__" data-cfemail="e7af8e808fa7abd3c9d6">[email protected]</a>
  6. Format settings, CABAC                   : Yes
  7. Format settings, ReFrames                : 5 frames
  8. Codec ID                                 : V_MPEG4/ISO/AVC
  9. Duration                                 : 1h 34mn
  10. Bit rate                                 : 8 655 Kbps
  11. Width                                    : 1 920 pixels
  12. Height                                   : 808 pixels
  13. Display aspect ratio                     : 2.40:1
  14. Frame rate mode                          : Constant
  15. Frame rate                               : 24.000 fps
  16. Color space                              : YUV
  17. Chroma subsampling                       : 4:2:0
  18. Bit depth                                : 8 bits
  19. Scan type                                : Progressive
  20. Bits/(Pixel*Frame)                       : 0.232
  21. Stream size                              : 5.71 GiB (87%)
  22. Writing library                          : x264 core 152 r2851kMod ba24899
  23. Encoding settings                        : cabac=1 / ref=5 / deblock=1:0:0 / analyse=0x3:0x133 / me=umh / subme=8 / psy=1 / fade_compensate=0.00 / psy_rd=1.00:0.00 / mixed_ref=1 / me_range=16 / chroma_me=1 / trellis=1 / 8x8dct=1 / cqm=0 / deadzone=21,11 / fast_pskip=0 / chroma_qp_offset=-2 / threads=18 / lookahead_threads=3 / sliced_threads=0 / nr=0 / decimate=1 / interlaced=0 / bluray_compat=0 / constrained_intra=0 / bframes=3 / b_pyramid=2 / b_adapt=1 / b_bias=0 / direct=1 / weightb=1 / open_gop=0 / weightp=2 / keyint=250 / keyint_min=24 / scenecut=40 / intra_refresh=0 / rc_lookahead=40 / rc=2pass / mbtree=1 / bitrate=8655 / ratetol=1.0 / qcomp=0.60 / qpmin=0 / qpmax=69 / qpstep=4 / cplxblur=20.0 / qblur=0.5 / ip_ratio=1.40 / aq=1:1.00
  24. Language                                 : English
  25. Default                                  : Yes
  26. Forced                                   : No

  27. Audio #1
  28. ID                                       : 2
  29. Format                                   : AC-3
  30. Format/Info                              : Audio Coding 3
  31. Mode extension                           : CM (complete main)
  32. Format settings, Endianness              : Big
  33. Codec ID                                 : A_AC3
  34. Duration                                 : 1h 34mn
  35. Bit rate mode                            : Constant
  36. Bit rate                                 : 640 Kbps
  37. Channel(s)                               : 2 channels
  38. Channel positions                        : Front: L R
  39. Sampling rate                            : 48.0 KHz
  40. Frame rate                               : 31.250 fps (1536 spf)
  41. Compression mode                         : Lossy
  42. Stream size                              : 432 MiB (6%)
  43. Title                                    : Italian
  44. Language                                 : Italian
  45. Default                                  : Yes
  46. Forced                                   : No

  47. Audio #2
  48. ID                                       : 3
  49. Format                                   : AC-3
  50. Format/Info                              : Audio Coding 3
  51. Mode extension                           : CM (complete main)
  52. Format settings, Endianness              : Big
  53. Codec ID                                 : A_AC3
  54. Duration                                 : 1h 34mn
  55. Bit rate mode                            : Constant
  56. Bit rate                                 : 640 Kbps
  57. Channel(s)                               : 2 channels
  58. Channel positions                        : Front: L R
  59. Sampling rate                            : 48.0 KHz
  60. Frame rate                               : 31.250 fps (1536 spf)
  61. Compression mode                         : Lossy
  62. Stream size                              : 432 MiB (6%)
  63. Title                                    : English
  64. Language                                 : English
  65. Default                                  : No
  66. Forced                                   : No

  67. Text
  68. ID                                       : 4
  69. Format                                   : UTF-8
  70. Codec ID                                 : S_TEXT/UTF8
  71. Codec ID/Info                            : UTF-8 Plain Text
  72. Duration                                 : 1h 33mn
  73. Bit rate                                 : 30 bps
  74. Count of elements                        : 811
  75. Stream size                              : 21.2 KiB (0%)
  76. Title                                    : English
  77. Language                                 : English
  78. Default                                  : Yes
  79. Forced                                   : No

  80. Menu
  81. 00:00:00.000                             : en:00:00:00.000
  82. 00:04:01.792                             : en:00:04:01.792
  83. 00:10:21.917                             : en:00:10:21.917
  84. 00:17:12.542                             : en:00:17:12.542
  85. 00:26:18.250                             : en:00:26:18.250
  86. 00:32:26.958                             : en:00:32:26.958
  87. 00:40:15.250                             : en:00:40:15.250
  88. 00:48:13.458                             : en:00:48:13.458
  89. 00:56:19.333                             : en:00:56:19.333
  90. 01:06:34.333                             : en:01:06:34.333
  91. 01:19:00.167                             : en:01:19:00.167
  92. 01:27:24.208                             : en:01:27:24.208
复制代码

梦魇之瞳 All.The.Colours.Of.The.Dark.1972.1080p.BluRay.x264-MOOVEE 6.56GB-2.png






开通VIP免费下载本站所有资源---点这里
新手必看:资源下载、资源播放、字幕使用、等常见问题---点这里
回复

使用道具 举报

发表于 2019-8-14 00:12:10 | 显示全部楼层
谢谢楼主分享好片
开通VIP免费下载本站所有资源---点这里
新手必看:资源下载、资源播放、字幕使用、等常见问题---点这里
回复 支持 反对

使用道具 举报

发表于 2019-8-14 10:55:10 | 显示全部楼层

其实我一直觉得楼主的品味不错!呵呵!蓝光电影网太棒了!
开通VIP免费下载本站所有资源---点这里
新手必看:资源下载、资源播放、字幕使用、等常见问题---点这里
回复 支持 反对

使用道具 举报

懒得打字嘛,点击右侧快捷回复 【右侧内容,后台自定义】
您需要登录后才可以回帖 登录 | 立即加入

本版积分规则

现在加入蓝光电影网,注册一个账号

QQ| 手机版|小黑屋| 蓝光电影网 |网站地图

Copyright © 2015-2019 Comsenz Inc.  Template by 蓝光电影网 All Rights Reserved.

Powered by 蓝光电影网 X3.4

特别声明:本站所有资源均由网上收集而来,版权归原影音公司所有,如果侵犯了你的权益,请通知我们,我们会及时删除侵权内容.

快速回复 返回顶部 返回列表