找回密码

蓝光电影网

查看: 420|回复: 9

TT3D:触摸极限 TT3D.Closer.to.the.Edge.2011.1080p.BluRay.x264-PHOBOS 7.65GB

[复制链接]

 成长值: 1000

发表于 2019-8-13 17:30:49 | 显示全部楼层 |阅读模式
TT3D:触摸极限 TT3D.Closer.to.the.Edge.2011.1080p.BluRay.x264-PHOBOS 7.65GB-1.jpg

译  名 TT3D:触摸极限
片  名 TT3D: Closer to the Edge
年  代 2011
产  地 英国
类  别 纪录片 / 运动
语  言 英语
上映日期 2011-04-22(英国)
IMDb评分  8.0/10 from 5935 users
IMDb链接  http://www.imdb.com/title/tt1698010
豆瓣评分 8.4/10 from 1651 users
豆瓣链接 https://movie.douban.com/subject/6041122/
片  长 104分钟
导  演 Richard De Aragues
主  演 Guy Martin
       Ian Hutchinson
       John McGuinness


标  签 纪录片 | 摩托 | 英国 | 赛车 | 体育 | 2011 | 励志 | 纪录

简  介  

  欧洲的低调纪录片《TT3D:触摸极限》讲述极速摩托车界的真实故事,以主观视角拍摄的亡命赛事--英国曼岛TT摩托车大赛,任何形式关于世界赛车运动影像的巅峰之作!观众观看时都要戴上专制的赛车头盔(配套3D眼镜),且至少看两遍以上,头一遍可感受亲自作为赛车手的彪速刺激,第二遍领略沿途的美丽风光。
  曼岛赛是世界三大TT赛中唯一没有奖金的,也是历史最悠久与最危险的(平均一年死一人),绝对是勇敢者的游戏。同时又是机车赛最长的封闭赛道,也是风景最优美的。有许多个人身份与小品牌厂商参赛,偶而也会有老车游行。
  人岛TT The Isle of Man TT
  人岛位於英格兰和爱尔兰之间的小岛,人岛TT赛在每年6月份在这岛上举行。比赛的赛道是围绕岛外围的公路,全长60公里,弯位有200个以上,是全世界最长的赛道。赛道穿过市街地、山路等,十分多元化。由於比赛的时间十分长,参赛者的耐力和集中力相当重要。世界知名的人岛TT摩托车赛自1907年首届在人岛举办(比MOTOGP要早很多).
  曼岛TT摩托车大赛可以称为世上最搏命的赛车比赛
  曼岛的赛车历史可追朔到1904年的汽车比赛,当时是只有限制汽车才能参加的比赛,而在2轮世界中著名的曼岛TT则是在1907开始的,曼岛位於英格兰和爱尔兰之间的小岛,曼岛TT赛事每年都会在这岛上举行。比赛的赛道是围绕曼岛外围的公路,全长共60公里,弯道约有226个,是全世界最长的赛道。赛道穿过市街地、山路等,十分多元化,由於比赛的时间很长,赛道的挑战性更是赛车界属一属二的,因此参赛者的耐力和集中力相当重要。因为赛道的挑战难度很高,所以也发生了许多的伤亡意外事故,累计从1907年开跑到现在(2007年),共有224位车手不幸丧生,而这数据中还包括了一些因为利益关系被杀害的车手人数。不过由於整个赛事的可看性非常高,因此每年都吸引了世界各国的车迷来到这个小岛,观赏世界著名的曼岛TT(The Isle of Man TT)赛事。
  曼岛TT的速度目前是由纽西兰车手Bruce Anstey骑著改装的GSX-R1000赛车,在进行Superbik级别赛事的时候所创下的206英哩 (331.5公里/小时),这项纪录是在Sulby Straight的一英哩长直线跑出来的.
  1. Video
  2. ID                                       : 1
  3. Format                                   : AVC
  4. Format/Info                              : Advanced Video Codec
  5. Format profile                           : <a href="/cdn-cgi/l/email-protection" class="__cf_email__" data-cfemail="cf87a6a8a78f83fbe1fe">[email protected]</a>
  6. Format settings, CABAC                   : Yes
  7. Format settings, ReFrames                : 4 frames
  8. Codec ID                                 : V_MPEG4/ISO/AVC
  9. Duration                                 : 1h 43mn
  10. Bit rate                                 : 9 057 Kbps
  11. Width                                    : 1 920 pixels
  12. Height                                   : 1 040 pixels
  13. Display aspect ratio                     : 1.85:1
  14. Frame rate mode                          : Constant
  15. Frame rate                               : 23.976 fps
  16. Color space                              : YUV
  17. Chroma subsampling                       : 4:2:0
  18. Bit depth                                : 8 bits
  19. Scan type                                : Progressive
  20. Bits/(Pixel*Frame)                       : 0.189
  21. Stream size                              : 6.40 GiB (84%)
  22. Writing library                          : x264 core 144 r2525 40bb568
  23. Encoding settings                        : cabac=1 / ref=4 / deblock=1:0:0 / analyse=0x3:0x113 / me=umh / subme=8 / psy=1 / psy_rd=1.00:0.00 / mixed_ref=1 / me_range=16 / chroma_me=1 / trellis=1 / 8x8dct=1 / cqm=0 / deadzone=21,11 / fast_pskip=1 / chroma_qp_offset=-2 / threads=12 / lookahead_threads=2 / sliced_threads=0 / nr=0 / decimate=1 / interlaced=0 / bluray_compat=0 / constrained_intra=0 / bframes=3 / b_pyramid=2 / b_adapt=2 / b_bias=0 / direct=3 / weightb=1 / open_gop=0 / weightp=2 / keyint=240 / keyint_min=23 / scenecut=40 / intra_refresh=0 / rc_lookahead=50 / rc=2pass / mbtree=1 / bitrate=9057 / ratetol=1.0 / qcomp=0.60 / qpmin=0 / qpmax=69 / qpstep=4 / cplxblur=20.0 / qblur=0.5 / vbv_maxrate=62500 / vbv_bufsize=78125 / nal_hrd=none / filler=0 / ip_ratio=1.40 / aq=1:1.00
  24. Language                                 : English
  25. Default                                  : Yes
  26. Forced                                   : No
  27. DURATION                                 : 01:43:35.084000000
  28. NUMBER_OF_FRAMES                         : 149013
  29. NUMBER_OF_BYTES                          : 7035905458
  30. _STATISTICS_WRITING_APP                  : mkvmerge v7.4.0 (\'Circles\') 32bit built on Dec 12 2014 12:10:09
  31. _STATISTICS_WRITING_DATE_UTC             : 2015-01-22 19:16:15
  32. _STATISTICS_TAGS                         : BPS DURATION NUMBER_OF_FRAMES NUMBER_OF_BYTES

  33. Audio
  34. ID                                       : 2
  35. Format                                   : DTS
  36. Format/Info                              : Digital Theater Systems
  37. Mode                                     : 16
  38. Format settings, Endianness              : Big
  39. Codec ID                                 : A_DTS
  40. Duration                                 : 1h 43mn
  41. Bit rate mode                            : Constant
  42. Bit rate                                 : 1 509 Kbps
  43. Channel(s)                               : 6 channels
  44. Channel positions                        : Front: L C R, Side: L R, LFE
  45. Sampling rate                            : 48.0 KHz
  46. Bit depth                                : 24 bits
  47. Compression mode                         : Lossy
  48. Stream size                              : 1.09 GiB (14%)
  49. Language                                 : English
  50. Default                                  : Yes
  51. Forced                                   : No

  52. Text
  53. ID                                       : 3
  54. Format                                   : UTF-8
  55. Codec ID                                 : S_TEXT/UTF8
  56. Codec ID/Info                            : UTF-8 Plain Text
  57. Language                                 : English
  58. Default                                  : No
  59. Forced                                   : No

  60. Menu
  61. 00:00:00.000                             : en:00:00:00.000
  62. 00:08:40.979                             : en:00:08:40.979
  63. 00:14:07.597                             : en:00:14:07.597
  64. 00:23:16.478                             : en:00:23:16.478
  65. 00:30:03.301                             : en:00:30:03.301
  66. 00:42:46.773                             : en:00:42:46.773
  67. 00:52:59.176                             : en:00:52:59.176
  68. 01:04:31.743                             : en:01:04:31.743
  69. 01:12:22.338                             : en:01:12:22.338
  70. 01:19:47.533                             : en:01:19:47.533
  71. 01:25:59.821                             : en:01:25:59.821
  72. 01:37:54.202                             : en:01:37:54.202
复制代码

TT3D:触摸极限 TT3D.Closer.to.the.Edge.2011.1080p.BluRay.x264-PHOBOS 7.65GB-2.png





开通VIP免费下载本站所有资源---点这里
新手必看:资源下载、资源播放、字幕使用、等常见问题---点这里
回复

使用道具 举报

发表于 2019-8-14 00:22:59 | 显示全部楼层

楼主太厉害了!楼主,电影应该很好看我觉得蓝光电影网真是个好地方!
开通VIP免费下载本站所有资源---点这里
新手必看:资源下载、资源播放、字幕使用、等常见问题---点这里
回复 支持 反对

使用道具 举报

发表于 2019-8-14 01:46:41 | 显示全部楼层

这个帖子不回对不起自己!我想我是一天也不能离开蓝光电影网
开通VIP免费下载本站所有资源---点这里
新手必看:资源下载、资源播放、字幕使用、等常见问题---点这里
回复 支持 反对

使用道具 举报

发表于 2019-8-14 09:14:48 | 显示全部楼层
谢谢发片。
开通VIP免费下载本站所有资源---点这里
新手必看:资源下载、资源播放、字幕使用、等常见问题---点这里
回复

使用道具 举报

发表于 2019-8-14 09:55:00 来自手机 | 显示全部楼层
谢谢楼主分享,这片肯定刺激值得一看
开通VIP免费下载本站所有资源---点这里
新手必看:资源下载、资源播放、字幕使用、等常见问题---点这里
回复 支持 反对

使用道具 举报

发表于 2019-8-16 15:56:05 | 显示全部楼层
楼主发贴辛苦了,谢谢楼主分享!我觉得蓝光电影网是注册对了!
开通VIP免费下载本站所有资源---点这里
新手必看:资源下载、资源播放、字幕使用、等常见问题---点这里
回复 支持 反对

使用道具 举报

发表于 6 天前 | 显示全部楼层
楼主发贴辛苦了,谢谢楼主分享!我觉得蓝光电影网是注册对了!
开通VIP免费下载本站所有资源---点这里
新手必看:资源下载、资源播放、字幕使用、等常见问题---点这里
回复 支持 反对

使用道具 举报

发表于 6 天前 | 显示全部楼层
楼主威武。。。。感谢分享
开通VIP免费下载本站所有资源---点这里
新手必看:资源下载、资源播放、字幕使用、等常见问题---点这里
回复 支持 反对

使用道具 举报

发表于 5 天前 | 显示全部楼层
感谢分享这么好看的电影
开通VIP免费下载本站所有资源---点这里
新手必看:资源下载、资源播放、字幕使用、等常见问题---点这里
回复 支持 反对

使用道具 举报

发表于 3 天前 | 显示全部楼层
楼主发贴辛苦了,谢谢楼主分享!我觉得蓝光电影网是注册对了!
开通VIP免费下载本站所有资源---点这里
新手必看:资源下载、资源播放、字幕使用、等常见问题---点这里
回复 支持 反对

使用道具 举报

懒得打字嘛,点击右侧快捷回复 【右侧内容,后台自定义】
您需要登录后才可以回帖 登录 | 立即加入

本版积分规则

现在加入蓝光电影网,注册一个账号

QQ| 手机版|小黑屋| 蓝光电影网 |网站地图

Copyright © 2015-2019 Comsenz Inc.  Template by 蓝光电影网 All Rights Reserved.

Powered by 蓝光电影网 X3.4

特别声明:本站所有资源均由网上收集而来,版权归原影音公司所有,如果侵犯了你的权益,请通知我们,我们会及时删除侵权内容.

快速回复 返回顶部 返回列表