找回密码

蓝光电影网

查看: 90|回复: 2

[10bit.SDR] 地狱男爵:血皇后崛起 Hellboy.2019.2160p.BluRay.x265.10bit.SDR.DTS-HD.MA.TrueHD.7.1.Atmos-SWTYBLZ 32.88GB

[复制链接]

 成长值: 1015

发表于 2019-8-10 23:18:38 | 显示全部楼层 |阅读模式
地狱男爵:血皇后崛起 Hellboy.2019.2160p.BluRay.x265.10bit.SDR.DTS-HD.MA.TrueHD.7.1.Atmos-SWTYBLZ 32.88GB-1.png

译  名 地狱男爵:血皇后崛起 / Hellboy - Call of Darkness / Hellboy: Rise of the Blood Queen / 地狱怪客:血后的崛起(台)
片  名 Hellboy
年  代 2019
产  地 美国
类  别 动作 / 奇幻 / 冒险
语  言 英语
上映日期 2019-04-12(美国)
IMDb评分  5.3/10 from 22655 users
IMDb链接  http://www.imdb.com/title/tt2274648
豆瓣评分 6.1/10 from 4880 users
豆瓣链接 https://movie.douban.com/subject/24750460/
片  长 120分钟
导  演 尼尔·马歇尔 Neil Marshall
编  剧 安德鲁·考斯比 Andrew Cosby / 迈克·米格诺拉 Mike Mignola
主  演 大卫·哈伯 David Harbour
      米拉·乔沃维奇 Milla Jovovich
      金大贤 Daniel Dae Kim
      伊恩·麦柯肖恩 Ian McShane
      阿利斯泰·皮垂 Alistair Petrie
      萨莎·莱恩 Sasha Lane
      托马斯·哈登·丘奇 Thomas Haden Church
      佩内洛普·米契尔 Penelope Mitchell
      苏菲·奥康内多 Sophie Okonedo
      布莱恩·格里森 Brian Gleeson
      克里斯蒂娜·克莱伯 Kristina Klebe
      阿什丽·艾德纳 Ashley Edner
      道格拉斯·泰特 Douglas Tait
      贝恩·科拉科 Bern Colla?o
      阿塔纳斯·斯雷布雷夫 Atanas Srebrev
      凡妮莎·艾科尔兹 Vanessa Eichholz
      莱拉·莫尔斯 Laila Morse


标  签 奇幻 | 美国 | 漫画改编 | 2019 | 地狱男爵 | 动作 | 科幻 | 漫画英雄

简  介  

  地狱男爵是二战期间被纳粹召唤到人间的恶魔之子,在被布鲁姆教授收养长大后逐渐学会了融入人类世界,成为了一名超自然力量调查员,然而一起关于末世的预言,令他陷入重重危机。与此同时,史上最强大的邪恶女巫血皇后正企图打破封印重返人间,并让瘟疫席卷地球。地狱男爵与通灵少女爱丽丝以及上校本·戴米奥,因此共同踏上了阻止血皇后的征程。

  1. Video
  2. ID                                       : 1
  3. Format                                   : HEVC
  4. Format/Info                              : High Efficiency Video Coding
  5. Format profile                           : Main <a href="/cdn-cgi/l/email-protection" class="__cf_email__" data-cfemail="5564651519607b64">[email protected]</a>@High
  6. Codec ID                                 : V_MPEGH/ISO/HEVC
  7. Duration                                 : 2 h 1 min
  8. Bit rate                                 : 28.5 Mb/s
  9. Width                                    : 3 840 pixels
  10. Height                                   : 1 606 pixels
  11. Display aspect ratio                     : 2.40:1
  12. Frame rate mode                          : Constant
  13. Frame rate                               : 23.976 (24000/1001) FPS
  14. Color space                              : YUV
  15. Chroma subsampling                       : 4:2:0
  16. Bit depth                                : 10 bits
  17. Bits/(Pixel*Frame)                       : 0.193
  18. Stream size                              : 24.1 GiB (74%)
  19. Title                                    : Hellboy.2019.2160p.BluRay.x265.10bit.SDR.DTS-HD.MA.TrueHD.7.1.Atmos-SWTYBLZ
  20. Writing library                          : x265 3.0ed72af837053:[Windows][GCC 8.2.0][64 bit] 10bit
  21. Encoding settings                        : cpuid=1111039 / frame-threads=16 / numa-pools=44,44 / wpp / no-pmode / no-pme / no-psnr / no-ssim / log-level=2 / input-csp=1 / input-res=3840x1606 / interlace=0 / total-frames=174120 / level-idc=51 / high-tier=1 / uhd-bd=0 / ref=3 / no-allow-non-conformance / repeat-headers / annexb / aud / hrd / info / hash=0 / no-temporal-layers / no-open-gop / min-keyint=1 / keyint=24 / gop-lookahead=0 / bframes=4 / b-adapt=2 / b-pyramid / bframe-bias=0 / rc-lookahead=25 / lookahead-slices=4 / scenecut=40 / radl=0 / no-splice / no-intra-refresh / ctu=64 / min-cu-size=8 / no-rect / no-amp / max-tu-size=32 / tu-inter-depth=1 / tu-intra-depth=1 / limit-tu=0 / rdoq-level=0 / dynamic-rd=0.00 / no-ssim-rd / signhide / no-tskip / nr-intra=0 / nr-inter=0 / no-constrained-intra / strong-intra-smoothing / max-merge=2 / limit-refs=3 / no-limit-modes / me=1 / subme=2 / merange=57 / temporal-mvp / weightp / no-weightb / no-analyze-src-pics / deblock=0:0 / no-sao / no-sao-non-deblock / rd=3 / no-early-skip / rskip / no-fast-intra / no-tskip-fast / no-cu-lossless / no-b-intra / no-splitrd-skip / rdpenalty=0 / psy-rd=2.00 / psy-rdoq=0.00 / no-rd-refine / no-lossless / cbqpoffs=0 / crqpoffs=0 / rc=crf / crf=16.0 / qcomp=0.60 / qpstep=4 / stats-write=0 / stats-read=0 / vbv-maxrate=160000 / vbv-bufsize=160000 / vbv-init=0.9 / crf-max=0.0 / crf-min=0.0 / ipratio=1.40 / pbratio=1.30 / aq-mode=1 / aq-strength=1.00 / cutree / zone-count=0 / no-strict-cbr / qg-size=32 / no-rc-grain / qpmax=69 / qpmin=0 / no-const-vbv / sar=1 / overscan=0 / videoformat=5 / range=0 / colorprim=2 / transfer=2 / colormatrix=2 / chromaloc=0 / display-window=0 / max-cll=0,0 / min-luma=0 / max-luma=1023 / log2-max-poc-lsb=8 / vui-timing-info / vui-hrd-info / slices=1 / opt-qp-pps / opt-ref-list-length-pps / no-multi-pass-opt-rps / scenecut-bias=0.05 / no-opt-cu-delta-qp / no-aq-motion / no-hdr / no-hdr-opt / no-dhdr10-opt / no-idr-recovery-sei / analysis-reuse-level=5 / scale-factor=0 / refine-intra=0 / refine-inter=0 / refine-mv=0 / refine-ctu-distortion=0 / no-limit-sao / ctu-info=0 / no-lowpass-dct / refine-analysis-type=0 / copy-pic=1 / max-ausize-factor=1.0 / no-dynamic-refine / no-single-sei / no-hevc-aq / qp-adaptation-range=1.00
  22. Default                                  : Yes
  23. Forced                                   : No

  24. Audio #1
  25. ID                                       : 2
  26. Format                                   : MLP FBA 16-ch
  27. Format/Info                              : Meridian Lossless Packing FBA with 16-channel presentation
  28. Commercial name                          : Dolby TrueHD with Dolby Atmos
  29. Codec ID                                 : A_TRUEHD
  30. Duration                                 : 2 h 1 min
  31. Bit rate mode                            : Variable
  32. Bit rate                                 : 5 255 kb/s
  33. Maximum bit rate                         : 9 408 kb/s
  34. Channel(s)                               : 8 channels
  35. Channel layout                           : L R C LFE Ls Rs Lb Rb
  36. Sampling rate                            : 48.0 kHz
  37. Frame rate                               : 1 200.000 FPS (40 SPF)
  38. Compression mode                         : Lossless
  39. Stream size                              : 4.44 GiB (14%)
  40. Title                                    : Hellboy.2019.2160p.BluRay.x265.10bit.SDR.DTS-HD.MA.TrueHD.7.1.Atmos-SWTYBLZ
  41. Language                                 : English
  42. Default                                  : Yes
  43. Forced                                   : No
  44. Number of dynamic objects                : 15
  45. Bed channel count                        : 1 channel
  46. Bed channel configuration                : LFE

  47. Audio #2
  48. ID                                       : 3
  49. Format                                   : DTS XLL
  50. Format/Info                              : Digital Theater Systems
  51. Commercial name                          : DTS-HD Master Audio
  52. Codec ID                                 : A_DTS
  53. Duration                                 : 2 h 1 min
  54. Bit rate mode                            : Variable
  55. Bit rate                                 : 4 387 kb/s
  56. Channel(s)                               : 8 channels
  57. Channel layout                           : C L R LFE Lb Rb Lss Rss
  58. Sampling rate                            : 48.0 kHz
  59. Frame rate                               : 93.750 FPS (512 SPF)
  60. Bit depth                                : 24 bits
  61. Compression mode                         : Lossless
  62. Stream size                              : 3.71 GiB (11%)
  63. Title                                    : Hellboy.2019.2160p.BluRay.x265.10bit.SDR.DTS-HD.MA.TrueHD.7.1.Atmos-SWTYBLZ
  64. Language                                 : English
  65. Default                                  : No
  66. Forced                                   : No

  67. Audio #3
  68. ID                                       : 4
  69. Format                                   : AC-3
  70. Format/Info                              : Audio Coding 3
  71. Commercial name                          : Dolby Digital
  72. Codec ID                                 : A_AC3
  73. Duration                                 : 2 h 1 min
  74. Bit rate mode                            : Constant
  75. Bit rate                                 : 448 kb/s
  76. Channel(s)                               : 6 channels
  77. Channel layout                           : L R C LFE Ls Rs
  78. Sampling rate                            : 48.0 kHz
  79. Frame rate                               : 31.250 FPS (1536 SPF)
  80. Bit depth                                : 16 bits
  81. Compression mode                         : Lossy
  82. Stream size                              : 388 MiB (1%)
  83. Title                                    : Hellboy.2019.2160p.BluRay.x265.10bit.SDR.DTS-HD.MA.TrueHD.7.1.Atmos-SWTYBLZ
  84. Language                                 : English
  85. Service kind                             : Complete Main
  86. Default                                  : No
  87. Forced                                   : No

  88. Text #1
  89. ID                                       : 5
  90. Format                                   : UTF-8
  91. Codec ID                                 : S_TEXT/UTF8
  92. Codec ID/Info                            : UTF-8 Plain Text
  93. Duration                                 : 2 h 0 min
  94. Bit rate                                 : 52 b/s
  95. Count of elements                        : 1379
  96. Stream size                              : 46.0 KiB (0%)
  97. Title                                    : English-SRT
  98. Language                                 : English
  99. Default                                  : Yes
  100. Forced                                   : No

  101. Text #2
  102. ID                                       : 6
  103. Format                                   : UTF-8
  104. Codec ID                                 : S_TEXT/UTF8
  105. Codec ID/Info                            : UTF-8 Plain Text
  106. Duration                                 : 2 h 0 min
  107. Bit rate                                 : 61 b/s
  108. Count of elements                        : 1732
  109. Stream size                              : 54.0 KiB (0%)
  110. Title                                    : English-SDH-SRT
  111. Language                                 : English
  112. Default                                  : No
  113. Forced                                   : No

  114. Text #3
  115. ID                                       : 7
  116. Format                                   : PGS
  117. Muxing mode                              : zlib
  118. Codec ID                                 : S_HDMV/PGS
  119. Codec ID/Info                            : Picture based subtitle format used on BDs/HD-DVDs
  120. Duration                                 : 2 h 0 min
  121. Bit rate                                 : 36.1 kb/s
  122. Count of elements                        : 2726
  123. Stream size                              : 31.1 MiB (0%)
  124. Title                                    : English-PGS
  125. Language                                 : English
  126. Default                                  : No
  127. Forced                                   : No

  128. Text #4
  129. ID                                       : 8
  130. Format                                   : PGS
  131. Muxing mode                              : zlib
  132. Codec ID                                 : S_HDMV/PGS
  133. Codec ID/Info                            : Picture based subtitle format used on BDs/HD-DVDs
  134. Duration                                 : 2 h 0 min
  135. Bit rate                                 : 43.2 kb/s
  136. Count of elements                        : 3464
  137. Stream size                              : 37.2 MiB (0%)
  138. Title                                    : English-SDH-PGS
  139. Language                                 : English
  140. Default                                  : No
  141. Forced                                   : No

  142. Text #5
  143. ID                                       : 9
  144. Format                                   : PGS
  145. Muxing mode                              : zlib
  146. Codec ID                                 : S_HDMV/PGS
  147. Codec ID/Info                            : Picture based subtitle format used on BDs/HD-DVDs
  148. Duration                                 : 2 h 0 min
  149. Bit rate                                 : 41.5 kb/s
  150. Count of elements                        : 3772
  151. Stream size                              : 35.9 MiB (0%)
  152. Title                                    : French-PGS
  153. Language                                 : French
  154. Default                                  : No
  155. Forced                                   : No

  156. Text #6
  157. ID                                       : 10
  158. Format                                   : PGS
  159. Muxing mode                              : zlib
  160. Codec ID                                 : S_HDMV/PGS
  161. Codec ID/Info                            : Picture based subtitle format used on BDs/HD-DVDs
  162. Duration                                 : 2 h 0 min
  163. Bit rate                                 : 34.1 kb/s
  164. Count of elements                        : 2600
  165. Stream size                              : 29.4 MiB (0%)
  166. Title                                    : Spanish-PGS
  167. Language                                 : Spanish
  168. Default                                  : No
  169. Forced                                   : No

  170. Menu
  171. 00:00:00.000                             : en:Chapter 01
  172. 00:08:54.284                             : en:Chapter 02
  173. 00:14:41.714                             : en:Chapter 03
  174. 00:22:34.853                             : en:Chapter 04
  175. 00:30:12.602                             : en:Chapter 05
  176. 00:35:48.730                             : en:Chapter 06
  177. 00:43:50.461                             : en:Chapter 07
  178. 00:53:17.611                             : en:Chapter 08
  179. 01:01:09.791                             : en:Chapter 09
  180. 01:09:24.786                             : en:Chapter 10
  181. 01:17:32.606                             : en:Chapter 11
  182. 01:26:07.579                             : en:Chapter 12
  183. 01:28:37.896                             : en:Chapter 13
  184. 01:37:58.456                             : en:Chapter 14
  185. 01:45:49.969                             : en:Chapter 15
  186. 01:51:06.660                             : en:Chapter 16
复制代码

地狱男爵:血皇后崛起 Hellboy.2019.2160p.BluRay.x265.10bit.SDR.DTS-HD.MA.TrueHD.7.1.Atmos-SWTYBLZ 32.88GB-2.png 地狱男爵:血皇后崛起 Hellboy.2019.2160p.BluRay.x265.10bit.SDR.DTS-HD.MA.TrueHD.7.1.Atmos-SWTYBLZ 32.88GB-3.png 地狱男爵:血皇后崛起 Hellboy.2019.2160p.BluRay.x265.10bit.SDR.DTS-HD.MA.TrueHD.7.1.Atmos-SWTYBLZ 32.88GB-4.png 地狱男爵:血皇后崛起 Hellboy.2019.2160p.BluRay.x265.10bit.SDR.DTS-HD.MA.TrueHD.7.1.Atmos-SWTYBLZ 32.88GB-5.png 地狱男爵:血皇后崛起 Hellboy.2019.2160p.BluRay.x265.10bit.SDR.DTS-HD.MA.TrueHD.7.1.Atmos-SWTYBLZ 32.88GB-6.png 地狱男爵:血皇后崛起 Hellboy.2019.2160p.BluRay.x265.10bit.SDR.DTS-HD.MA.TrueHD.7.1.Atmos-SWTYBLZ 32.88GB-7.png 地狱男爵:血皇后崛起 Hellboy.2019.2160p.BluRay.x265.10bit.SDR.DTS-HD.MA.TrueHD.7.1.Atmos-SWTYBLZ 32.88GB-8.png





开通VIP免费下载本站所有资源---点这里
新手必看:资源下载、资源播放、字幕使用、等常见问题---点这里
回复

使用道具 举报

发表于 2019-8-11 11:27:46 | 显示全部楼层
楼主发贴辛苦了,谢谢楼主分享!我觉得蓝光电影网是注册对了!
开通VIP免费下载本站所有资源---点这里
新手必看:资源下载、资源播放、字幕使用、等常见问题---点这里
回复 支持 反对

使用道具 举报

发表于 6 天前 | 显示全部楼层

这个帖子不回对不起自己!我想我是一天也不能离开蓝光电影网
开通VIP免费下载本站所有资源---点这里
新手必看:资源下载、资源播放、字幕使用、等常见问题---点这里
回复 支持 反对

使用道具 举报

懒得打字嘛,点击右侧快捷回复 【右侧内容,后台自定义】
您需要登录后才可以回帖 登录 | 立即加入

本版积分规则

现在加入蓝光电影网,注册一个账号

QQ| 手机版|小黑屋| 蓝光电影网 |网站地图

Copyright © 2015-2019 Comsenz Inc.  Template by 蓝光电影网 All Rights Reserved.

Powered by 蓝光电影网 X3.4

特别声明:本站所有资源均由网上收集而来,版权归原影音公司所有,如果侵犯了你的权益,请通知我们,我们会及时删除侵权内容.

快速回复 返回顶部 返回列表