找回密码

蓝光电影网

查看: 105|回复: 3

[REMUX.HEVC] 地狱男爵:血皇后崛起 Hellboy.2019.2160p.BluRay.REMUX.HEVC.DTS-HD.MA.TrueHD.7.1.Atmos-FGT 71.94GB

[复制链接]

 成长值: 1000

发表于 2019-8-10 23:14:18 | 显示全部楼层 |阅读模式
地狱男爵:血皇后崛起 Hellboy.2019.2160p.BluRay.REMUX.HEVC.DTS-HD.MA.TrueHD.7.1.Atmos-FGT 71.94GB-1.png

译  名 地狱男爵:血皇后崛起 / Hellboy - Call of Darkness / Hellboy: Rise of the Blood Queen / 地狱怪客:血后的崛起(台)
片  名 Hellboy
年  代 2019
产  地 美国
类  别 动作 / 奇幻 / 冒险
语  言 英语
上映日期 2019-04-12(美国)
IMDb评分  5.3/10 from 22655 users
IMDb链接  http://www.imdb.com/title/tt2274648
豆瓣评分 6.1/10 from 4880 users
豆瓣链接 https://movie.douban.com/subject/24750460/
片  长 120分钟
导  演 尼尔·马歇尔 Neil Marshall
编  剧 安德鲁·考斯比 Andrew Cosby / 迈克·米格诺拉 Mike Mignola
主  演 大卫·哈伯 David Harbour
      米拉·乔沃维奇 Milla Jovovich
      金大贤 Daniel Dae Kim
      伊恩·麦柯肖恩 Ian McShane
      阿利斯泰·皮垂 Alistair Petrie
      萨莎·莱恩 Sasha Lane
      托马斯·哈登·丘奇 Thomas Haden Church
      佩内洛普·米契尔 Penelope Mitchell
      苏菲·奥康内多 Sophie Okonedo
      布莱恩·格里森 Brian Gleeson
      克里斯蒂娜·克莱伯 Kristina Klebe
      阿什丽·艾德纳 Ashley Edner
      道格拉斯·泰特 Douglas Tait
      贝恩·科拉科 Bern Colla?o
      阿塔纳斯·斯雷布雷夫 Atanas Srebrev
      凡妮莎·艾科尔兹 Vanessa Eichholz
      莱拉·莫尔斯 Laila Morse


标  签 奇幻 | 美国 | 漫画改编 | 2019 | 地狱男爵 | 动作 | 科幻 | 漫画英雄

简  介  

  地狱男爵是二战期间被纳粹召唤到人间的恶魔之子,在被布鲁姆教授收养长大后逐渐学会了融入人类世界,成为了一名超自然力量调查员,然而一起关于末世的预言,令他陷入重重危机。与此同时,史上最强大的邪恶女巫血皇后正企图打破封印重返人间,并让瘟疫席卷地球。地狱男爵与通灵少女爱丽丝以及上校本·戴米奥,因此共同踏上了阻止血皇后的征程。

  1. Video #1
  2. ID                                       : 1
  3. Format                                   : HEVC
  4. Format/Info                              : High Efficiency Video Coding
  5. Format profile                           : Main <a href="/cdn-cgi/l/email-protection" class="__cf_email__" data-cfemail="dcedec9c90e9f2ed">[email protected]</a>@High
  6. HDR format                               : SMPTE ST 2086, HDR10 compatible
  7. Codec ID                                 : V_MPEGH/ISO/HEVC
  8. Duration                                 : 2 h 1 min
  9. Bit rate                                 : 66.1 Mb/s
  10. Width                                    : 3 840 pixels
  11. Height                                   : 2 160 pixels
  12. Display aspect ratio                     : 16:9
  13. Frame rate mode                          : Constant
  14. Frame rate                               : 23.976 (24000/1001) FPS
  15. Color space                              : YUV
  16. Chroma subsampling                       : 4:2:0 (Type 2)
  17. Bit depth                                : 10 bits
  18. Bits/(Pixel*Frame)                       : 0.332
  19. Stream size                              : 55.9 GiB (78%)
  20. Title                                    : Hellboy.2019.2160p.BluRay.REMUX.HEVC.DTS-HD.MA.TrueHD.7.1.Atmos-FGT
  21. Language                                 : English
  22. Default                                  : Yes
  23. Forced                                   : No
  24. Color range                              : Limited
  25. Color primaries                          : BT.2020
  26. Transfer characteristics                 : PQ
  27. Matrix coefficients                      : BT.2020 non-constant
  28. Mastering display color primaries        : Display P3
  29. Mastering display luminance              : min: 0.0001 cd/m2, max: 4000 cd/m2
  30. Maximum Content Light Level              : 3947 cd/m2
  31. Maximum Frame-Average Light Level        : 542 cd/m2

  32. Video #2
  33. ID                                       : 2
  34. Format                                   : HEVC
  35. Format/Info                              : High Efficiency Video Coding
  36. Format profile                           : Main <a href="/cdn-cgi/l/email-protection" class="__cf_email__" data-cfemail="2f1e1f6f631a011e">[email protected]</a>@High
  37. HDR format                               : SMPTE ST 2086, HDR10 compatible
  38. Codec ID                                 : V_MPEGH/ISO/HEVC
  39. Duration                                 : 2 h 1 min
  40. Bit rate                                 : 7 652 kb/s
  41. Width                                    : 1 920 pixels
  42. Height                                   : 1 080 pixels
  43. Display aspect ratio                     : 16:9
  44. Frame rate mode                          : Constant
  45. Frame rate                               : 23.976 (24000/1001) FPS
  46. Color space                              : YUV
  47. Chroma subsampling                       : 4:2:0 (Type 2)
  48. Bit depth                                : 10 bits
  49. Bits/(Pixel*Frame)                       : 0.154
  50. Stream size                              : 6.47 GiB (9%)
  51. Title                                    : Hellboy.2019.2160p.BluRay.REMUX.HEVC.DTS-HD.MA.TrueHD.7.1.Atmos-FGT
  52. Language                                 : English
  53. Default                                  : No
  54. Forced                                   : No
  55. Color range                              : Limited
  56. Color primaries                          : BT.2020
  57. Transfer characteristics                 : PQ
  58. Matrix coefficients                      : BT.2020 non-constant
  59. Mastering display color primaries        : Display P3
  60. Mastering display luminance              : min: 0.0001 cd/m2, max: 4000 cd/m2

  61. Audio #1
  62. ID                                       : 3
  63. Format                                   : MLP FBA 16-ch
  64. Format/Info                              : Meridian Lossless Packing FBA with 16-channel presentation
  65. Commercial name                          : Dolby TrueHD with Dolby Atmos
  66. Codec ID                                 : A_TRUEHD
  67. Duration                                 : 2 h 1 min
  68. Bit rate mode                            : Variable
  69. Bit rate                                 : 5 255 kb/s
  70. Maximum bit rate                         : 9 408 kb/s
  71. Channel(s)                               : 8 channels
  72. Channel layout                           : L R C LFE Ls Rs Lb Rb
  73. Sampling rate                            : 48.0 kHz
  74. Frame rate                               : 1 200.000 FPS (40 SPF)
  75. Compression mode                         : Lossless
  76. Stream size                              : 4.44 GiB (6%)
  77. Title                                    : Hellboy.2019.2160p.BluRay.REMUX.HEVC.DTS-HD.MA.TrueHD.7.1.Atmos-FGT
  78. Language                                 : English
  79. Default                                  : Yes
  80. Forced                                   : No
  81. Number of dynamic objects                : 15
  82. Bed channel count                        : 1 channel
  83. Bed channel configuration                : LFE

  84. Audio #2
  85. ID                                       : 4
  86. Format                                   : DTS XLL
  87. Format/Info                              : Digital Theater Systems
  88. Commercial name                          : DTS-HD Master Audio
  89. Codec ID                                 : A_DTS
  90. Duration                                 : 2 h 1 min
  91. Bit rate mode                            : Variable
  92. Bit rate                                 : 4 387 kb/s
  93. Channel(s)                               : 8 channels
  94. Channel layout                           : C L R LFE Lb Rb Lss Rss
  95. Sampling rate                            : 48.0 kHz
  96. Frame rate                               : 93.750 FPS (512 SPF)
  97. Bit depth                                : 24 bits
  98. Compression mode                         : Lossless
  99. Stream size                              : 3.71 GiB (5%)
  100. Title                                    : Hellboy.2019.2160p.BluRay.REMUX.HEVC.DTS-HD.MA.TrueHD.7.1.Atmos-FGT
  101. Language                                 : English
  102. Default                                  : No
  103. Forced                                   : No

  104. Audio #3
  105. ID                                       : 5
  106. Format                                   : AC-3
  107. Format/Info                              : Audio Coding 3
  108. Commercial name                          : Dolby Digital
  109. Codec ID                                 : A_AC3
  110. Duration                                 : 2 h 1 min
  111. Bit rate mode                            : Constant
  112. Bit rate                                 : 448 kb/s
  113. Channel(s)                               : 6 channels
  114. Channel layout                           : L R C LFE Ls Rs
  115. Sampling rate                            : 48.0 kHz
  116. Frame rate                               : 31.250 FPS (1536 SPF)
  117. Bit depth                                : 16 bits
  118. Compression mode                         : Lossy
  119. Stream size                              : 388 MiB (1%)
  120. Title                                    : Hellboy.2019.2160p.BluRay.REMUX.HEVC.DTS-HD.MA.TrueHD.7.1.Atmos-FGT
  121. Language                                 : English
  122. Service kind                             : Complete Main
  123. Default                                  : No
  124. Forced                                   : No

  125. Audio #4
  126. ID                                       : 6
  127. Format                                   : AC-3
  128. Format/Info                              : Audio Coding 3
  129. Commercial name                          : Dolby Digital
  130. Codec ID                                 : A_AC3
  131. Duration                                 : 2 h 1 min
  132. Bit rate mode                            : Constant
  133. Bit rate                                 : 448 kb/s
  134. Channel(s)                               : 6 channels
  135. Channel layout                           : L R C LFE Ls Rs
  136. Sampling rate                            : 48.0 kHz
  137. Frame rate                               : 31.250 FPS (1536 SPF)
  138. Bit depth                                : 16 bits
  139. Compression mode                         : Lossy
  140. Stream size                              : 388 MiB (1%)
  141. Title                                    : Hellboy.2019.2160p.BluRay.REMUX.HEVC.DTS-HD.MA.TrueHD.7.1.Atmos-FGT
  142. Language                                 : Spanish
  143. Service kind                             : Complete Main
  144. Default                                  : No
  145. Forced                                   : No

  146. Audio #5
  147. ID                                       : 7
  148. Format                                   : AC-3
  149. Format/Info                              : Audio Coding 3
  150. Commercial name                          : Dolby Digital
  151. Codec ID                                 : A_AC3
  152. Duration                                 : 2 h 1 min
  153. Bit rate mode                            : Constant
  154. Bit rate                                 : 448 kb/s
  155. Channel(s)                               : 6 channels
  156. Channel layout                           : L R C LFE Ls Rs
  157. Sampling rate                            : 48.0 kHz
  158. Frame rate                               : 31.250 FPS (1536 SPF)
  159. Bit depth                                : 16 bits
  160. Compression mode                         : Lossy
  161. Stream size                              : 388 MiB (1%)
  162. Title                                    : Hellboy.2019.2160p.BluRay.REMUX.HEVC.DTS-HD.MA.TrueHD.7.1.Atmos-FGT
  163. Language                                 : French
  164. Service kind                             : Complete Main
  165. Default                                  : No
  166. Forced                                   : No

  167. Audio #6
  168. ID                                       : 8
  169. Format                                   : AC-3
  170. Format/Info                              : Audio Coding 3
  171. Commercial name                          : Dolby Digital
  172. Codec ID                                 : A_AC3
  173. Duration                                 : 2 h 1 min
  174. Bit rate mode                            : Constant
  175. Bit rate                                 : 192 kb/s
  176. Channel(s)                               : 2 channels
  177. Channel layout                           : L R
  178. Sampling rate                            : 48.0 kHz
  179. Frame rate                               : 31.250 FPS (1536 SPF)
  180. Bit depth                                : 16 bits
  181. Compression mode                         : Lossy
  182. Stream size                              : 166 MiB (0%)
  183. Title                                    : Hellboy.2019.2160p.BluRay.REMUX.HEVC.DTS-HD.MA.TrueHD.7.1.Atmos-FGT
  184. Language                                 : English
  185. Service kind                             : Complete Main
  186. Default                                  : No
  187. Forced                                   : No

  188. Text #1
  189. ID                                       : 9
  190. Format                                   : UTF-8
  191. Codec ID                                 : S_TEXT/UTF8
  192. Codec ID/Info                            : UTF-8 Plain Text
  193. Duration                                 : 2 h 0 min
  194. Bit rate                                 : 52 b/s
  195. Count of elements                        : 1379
  196. Stream size                              : 46.0 KiB (0%)
  197. Title                                    : English-SRT
  198. Language                                 : English
  199. Default                                  : Yes
  200. Forced                                   : No

  201. Text #2
  202. ID                                       : 10
  203. Format                                   : UTF-8
  204. Codec ID                                 : S_TEXT/UTF8
  205. Codec ID/Info                            : UTF-8 Plain Text
  206. Duration                                 : 2 h 0 min
  207. Bit rate                                 : 61 b/s
  208. Count of elements                        : 1732
  209. Stream size                              : 54.0 KiB (0%)
  210. Title                                    : English-SDH-SRT
  211. Language                                 : English
  212. Default                                  : No
  213. Forced                                   : No

  214. Text #3
  215. ID                                       : 11
  216. Format                                   : PGS
  217. Muxing mode                              : zlib
  218. Codec ID                                 : S_HDMV/PGS
  219. Codec ID/Info                            : Picture based subtitle format used on BDs/HD-DVDs
  220. Duration                                 : 2 h 0 min
  221. Bit rate                                 : 36.1 kb/s
  222. Count of elements                        : 2726
  223. Stream size                              : 31.1 MiB (0%)
  224. Title                                    : English-PGS
  225. Language                                 : English
  226. Default                                  : No
  227. Forced                                   : No

  228. Text #4
  229. ID                                       : 12
  230. Format                                   : PGS
  231. Muxing mode                              : zlib
  232. Codec ID                                 : S_HDMV/PGS
  233. Codec ID/Info                            : Picture based subtitle format used on BDs/HD-DVDs
  234. Duration                                 : 2 h 0 min
  235. Bit rate                                 : 43.2 kb/s
  236. Count of elements                        : 3464
  237. Stream size                              : 37.2 MiB (0%)
  238. Title                                    : English-SDH-PGS
  239. Language                                 : English
  240. Default                                  : No
  241. Forced                                   : No

  242. Text #5
  243. ID                                       : 13
  244. Format                                   : PGS
  245. Muxing mode                              : zlib
  246. Codec ID                                 : S_HDMV/PGS
  247. Codec ID/Info                            : Picture based subtitle format used on BDs/HD-DVDs
  248. Duration                                 : 2 h 0 min
  249. Bit rate                                 : 34.1 kb/s
  250. Count of elements                        : 2600
  251. Stream size                              : 29.4 MiB (0%)
  252. Title                                    : Spanish-PGS
  253. Language                                 : Spanish
  254. Default                                  : No
  255. Forced                                   : No

  256. Text #6
  257. ID                                       : 14
  258. Format                                   : PGS
  259. Muxing mode                              : zlib
  260. Codec ID                                 : S_HDMV/PGS
  261. Codec ID/Info                            : Picture based subtitle format used on BDs/HD-DVDs
  262. Duration                                 : 1 h 50 min
  263. Bit rate                                 : 113 b/s
  264. Count of elements                        : 12
  265. Stream size                              : 91.5 KiB (0%)
  266. Title                                    : Spanish-FORCED_PGS
  267. Language                                 : Spanish
  268. Default                                  : No
  269. Forced                                   : No

  270. Text #7
  271. ID                                       : 15
  272. Format                                   : PGS
  273. Muxing mode                              : zlib
  274. Codec ID                                 : S_HDMV/PGS
  275. Codec ID/Info                            : Picture based subtitle format used on BDs/HD-DVDs
  276. Duration                                 : 2 h 0 min
  277. Bit rate                                 : 41.5 kb/s
  278. Count of elements                        : 3772
  279. Stream size                              : 35.9 MiB (0%)
  280. Title                                    : French-PGS
  281. Language                                 : French
  282. Default                                  : No
  283. Forced                                   : No

  284. Text #8
  285. ID                                       : 16
  286. Format                                   : PGS
  287. Muxing mode                              : zlib
  288. Codec ID                                 : S_HDMV/PGS
  289. Codec ID/Info                            : Picture based subtitle format used on BDs/HD-DVDs
  290. Duration                                 : 1 h 45 min
  291. Bit rate                                 : 577 b/s
  292. Count of elements                        : 54
  293. Stream size                              : 444 KiB (0%)
  294. Title                                    : French-FORCED-PGS
  295. Language                                 : French
  296. Default                                  : No
  297. Forced                                   : No

  298. Menu
  299. 00:00:00.000                             : en:Chapter 01
  300. 00:08:54.283                             : en:Chapter 02
  301. 00:14:41.714                             : en:Chapter 03
  302. 00:22:34.478                             : en:Chapter 04
  303. 00:30:12.352                             : en:Chapter 05
  304. 00:35:48.729                             : en:Chapter 06
  305. 00:43:50.419                             : en:Chapter 07
  306. 00:53:17.777                             : en:Chapter 08
  307. 01:01:09.707                             : en:Chapter 09
  308. 01:09:24.410                             : en:Chapter 10
  309. 01:17:32.606                             : en:Chapter 11
  310. 01:26:07.579                             : en:Chapter 12
  311. 01:28:37.895                             : en:Chapter 13
  312. 01:37:58.455                             : en:Chapter 14
  313. 01:45:49.801                             : en:Chapter 15
  314. 01:51:06.785                             : en:Chapter 16
复制代码

地狱男爵:血皇后崛起 Hellboy.2019.2160p.BluRay.REMUX.HEVC.DTS-HD.MA.TrueHD.7.1.Atmos-FGT 71.94GB-2.png 地狱男爵:血皇后崛起 Hellboy.2019.2160p.BluRay.REMUX.HEVC.DTS-HD.MA.TrueHD.7.1.Atmos-FGT 71.94GB-3.png 地狱男爵:血皇后崛起 Hellboy.2019.2160p.BluRay.REMUX.HEVC.DTS-HD.MA.TrueHD.7.1.Atmos-FGT 71.94GB-4.png






开通VIP免费下载本站所有资源---点这里
新手必看:资源下载、资源播放、字幕使用、等常见问题---点这里
回复

使用道具 举报

发表于 2019-8-11 13:13:06 | 显示全部楼层
谢谢楼主分袖
开通VIP免费下载本站所有资源---点这里
新手必看:资源下载、资源播放、字幕使用、等常见问题---点这里
回复 支持 反对

使用道具 举报

 成长值: 0

发表于 2019-8-11 13:38:02 | 显示全部楼层
怎么下载是PHP文件呢
开通VIP免费下载本站所有资源---点这里
新手必看:资源下载、资源播放、字幕使用、等常见问题---点这里
回复 支持 反对

使用道具 举报

 成长值: 250

发表于 2019-8-12 18:00:01 | 显示全部楼层
谢谢楼主分享。
开通VIP免费下载本站所有资源---点这里
新手必看:资源下载、资源播放、字幕使用、等常见问题---点这里
回复 支持 反对

使用道具 举报

懒得打字嘛,点击右侧快捷回复 【右侧内容,后台自定义】
您需要登录后才可以回帖 登录 | 立即加入

本版积分规则

现在加入蓝光电影网,注册一个账号

QQ| 手机版|小黑屋| 蓝光电影网 |网站地图

Copyright © 2015-2019 Comsenz Inc.  Template by 蓝光电影网 All Rights Reserved.

Powered by 蓝光电影网 X3.4

特别声明:本站所有资源均由网上收集而来,版权归原影音公司所有,如果侵犯了你的权益,请通知我们,我们会及时删除侵权内容.

快速回复 返回顶部 返回列表