找回密码

蓝光电影网

查看: 228|回复: 8

[8bit.SDR] 钢铁侠2/钢铁人2 Iron.Man.2.2010.2160p.US.BluRay.x264.8bit.SDR.DTS-HD.MA.TrueHD.7.1.Atmos-SWTYBLZ 32.49GB

[复制链接]

 成长值: 1000

发表于 2019-8-10 14:55:08 | 显示全部楼层 |阅读模式
钢铁侠2/钢铁人2 Iron.Man.2.2010.2160p.US.BluRay.x264.8bit.SDR.DTS-HD.MA.TrueHD.7.1.Atmos-SWTYBLZ 32.49GB-1.jpg

译  名 钢铁侠2 / 钢铁人2(台) / 铁人2 / 铁甲奇侠2(港)
片  名 Iron Man 2
年  代 2010
产  地 美国
类  别 动作 / 科幻 / 冒险
语  言 英语 / 法语 / 俄语
上映日期 2010-05-07(中国大陆/美国)
IMDb评分  7.0/10 from 665986 users
IMDb链接  http://www.imdb.com/title/tt1228705
豆瓣评分 7.6/10 from 308044 users
豆瓣链接 https://movie.douban.com/subject/3066739/
片  长 124 分钟
导  演 乔恩·费儒 Jon Favreau
编  剧 贾斯汀·塞洛克斯 Justin Theroux
主  演 小罗伯特·唐尼 Robert Downey Jr.
       格温妮斯·帕特洛 Gwyneth Paltrow
       米基·洛克 Mickey Rourke
       斯嘉丽·约翰逊 Scarlett Johansson
       山姆·洛克威尔 Sam Rockwell
       唐·钱德尔 Don Cheadle
       塞缪尔·杰克逊 Samuel L. Jackson
       乔恩·费儒 Jon Favreau
       保罗·贝坦尼 Paul Bettany
       克拉克·格雷格 Clark Gregg
       凯特·玛拉 Kate Mara
       约翰·斯拉特里 John Slattery


标  签 科幻 | 美国 | 钢铁侠 | 动作 | 漫威 | 漫画改编 | 美国电影 | RobertDowneyJr

简  介  

  钢铁侠托尼·斯塔克(小罗伯特·唐尼 Robert Downey Jr. 饰)在国会听证上拒绝交出最新技术。与此同时,他发现胸口的微型电弧反应炉正迅速造成血液的钯金属中毒。沮丧的托尼将斯塔克公司的总裁职务交予了秘书波兹(格温妮丝·帕特罗 Gwyneth Paltrow 饰),由她全权负责正在进行的纽约斯塔克博览会。波兹从法律部门调来助理娜塔莉(斯佳丽·约翰逊 Scarlett Johansson 饰)照顾托尼。托尼在媒体前的高调亮相引起了其父当年同事的儿子,伊凡(米基·洛克 Mickey Rourke 饰)的不满。为了实施报复,他子承父业,研制出了一套可与钢铁战衣相媲美的装备。伊凡的技术引起了托尼的竞争对手,军火商贾斯丁·汉默(山姆·洛克威尔 Sam Rockwell 饰)的注意,他设法将伊凡劫持出狱,秘密研究取代钢铁侠。正当托尼苦于钯金属中毒造成的失意之时,他发现娜塔莉原来身负秘密使命,而自己的任性,也造成了与好友,空军上校罗尼(唐·钱德尔 Don Cheadle 饰)的反目,眼看局势就要失控……

获奖情况  

  第83届奥斯卡金像奖(2011)
  最佳视觉效果(提名) 盖德·赖特 / 丹尼尔·萨迪克 / 加内克·西尔斯 / Ben Snow

  第20届MTV电影奖(2011)
  MTV电影奖 最佳反派(提名) 米基·洛克

  第12届美国青少年选择奖(2010)
  最佳科幻电影(提名)
  最佳科幻电影男演员(提名) 小罗伯特·唐尼
  最佳科幻电影女演员(提名) 斯嘉丽·约翰逊 / 格温妮斯·帕特洛
  最佳电影舞蹈(提名) 小罗伯特·唐尼
  最佳电影反派(提名) 米基·洛克
  最佳电影打斗(提名) 小罗伯特·唐尼 / 唐·钱德尔
  1. Video
  2. ID                                       : 1
  3. Format                                   : AVC
  4. Format/Info                              : Advanced Video Codec
  5. Format profile                           : <a href="/cdn-cgi/l/email-protection" class="__cf_email__" data-cfemail="2961404e4169651c0718">[email protected]</a>
  6. Format settings                          : CABAC / 5 Ref Frames
  7. Format settings, CABAC                   : Yes
  8. Format settings, Reference frames        : 5 frames
  9. Codec ID                                 : V_MPEG4/ISO/AVC
  10. Duration                                 : 2 h 4 min
  11. Bit rate                                 : 27.9 Mb/s
  12. Width                                    : 3 840 pixels
  13. Height                                   : 1 634 pixels
  14. Display aspect ratio                     : 2.35:1
  15. Frame rate mode                          : Constant
  16. Frame rate                               : 23.976 (24000/1001) FPS
  17. Color space                              : YUV
  18. Chroma subsampling                       : 4:2:0
  19. Bit depth                                : 8 bits
  20. Scan type                                : Progressive
  21. Bits/(Pixel*Frame)                       : 0.185
  22. Stream size                              : 24.3 GiB (75%)
  23. Title                                    : Iron.Man.2.2010.2160p.US.BluRay.x264.8bit.SDR.DTS-HD.MA.TrueHD.7.1.Atmos-SWTYBLZ
  24. Writing library                          : x264 core 157 r2935 545de2f
  25. Encoding settings                        : cabac=1 / ref=5 / deblock=1:-1:-1 / analyse=0x3:0x113 / me=umh / subme=10 / psy=1 / psy_rd=1.00:0.15 / mixed_ref=1 / me_range=48 / chroma_me=1 / trellis=2 / 8x8dct=1 / cqm=0 / deadzone=21,11 / fast_pskip=1 / chroma_qp_offset=-3 / threads=48 / lookahead_threads=4 / sliced_threads=0 / nr=0 / decimate=0 / interlaced=0 / bluray_compat=0 / constrained_intra=0 / bframes=3 / b_pyramid=2 / b_adapt=2 / b_bias=0 / direct=3 / weightb=1 / open_gop=0 / weightp=2 / keyint=250 / keyint_min=23 / scenecut=40 / intra_refresh=0 / rc_lookahead=50 / rc=crf / mbtree=1 / crf=18.0 / qcomp=0.60 / qpmin=0 / qpmax=69 / qpstep=4 / ip_ratio=1.40 / aq=1:1.00
  26. Default                                  : Yes
  27. Forced                                   : No

  28. Audio #1
  29. ID                                       : 2
  30. Format                                   : MLP FBA 16-ch
  31. Format/Info                              : Meridian Lossless Packing FBA with 16-channel presentation
  32. Commercial name                          : Dolby TrueHD with Dolby Atmos
  33. Codec ID                                 : A_TRUEHD
  34. Duration                                 : 2 h 4 min
  35. Bit rate mode                            : Variable
  36. Bit rate                                 : 4 266 kb/s
  37. Maximum bit rate                         : 7 719 kb/s
  38. Channel(s)                               : 8 channels
  39. Channel layout                           : L R C LFE Ls Rs Lb Rb
  40. Sampling rate                            : 48.0 kHz
  41. Frame rate                               : 1 200.000 FPS (40 SPF)
  42. Compression mode                         : Lossless
  43. Stream size                              : 3.71 GiB (11%)
  44. Title                                    : Iron.Man.2.2010.2160p.US.BluRay.x264.8bit.SDR.DTS-HD.MA.TrueHD.7.1.Atmos-SWTYBLZ
  45. Language                                 : English
  46. Default                                  : Yes
  47. Forced                                   : No
  48. Number of dynamic objects                : 13
  49. Bed channel count                        : 1 channel
  50. Bed channel configuration                : LFE

  51. Audio #2
  52. ID                                       : 3
  53. Format                                   : DTS XLL
  54. Format/Info                              : Digital Theater Systems
  55. Commercial name                          : DTS-HD Master Audio
  56. Codec ID                                 : A_DTS
  57. Duration                                 : 2 h 4 min
  58. Bit rate mode                            : Variable
  59. Bit rate                                 : 4 208 kb/s
  60. Channel(s)                               : 8 channels
  61. Channel layout                           : C L R LFE Lb Rb Lss Rss
  62. Sampling rate                            : 48.0 kHz
  63. Frame rate                               : 93.750 FPS (512 SPF)
  64. Bit depth                                : 24 bits
  65. Compression mode                         : Lossless
  66. Stream size                              : 3.66 GiB (11%)
  67. Title                                    : Iron.Man.2.2010.2160p.US.BluRay.x264.8bit.SDR.DTS-HD.MA.TrueHD.7.1.Atmos-SWTYBLZ
  68. Language                                 : English
  69. Default                                  : No
  70. Forced                                   : No

  71. Audio #3
  72. ID                                       : 4
  73. Format                                   : AC-3
  74. Format/Info                              : Audio Coding 3
  75. Commercial name                          : Dolby Digital
  76. Codec ID                                 : A_AC3
  77. Duration                                 : 2 h 4 min
  78. Bit rate mode                            : Constant
  79. Bit rate                                 : 640 kb/s
  80. Channel(s)                               : 6 channels
  81. Channel layout                           : L R C LFE Ls Rs
  82. Sampling rate                            : 48.0 kHz
  83. Frame rate                               : 31.250 FPS (1536 SPF)
  84. Bit depth                                : 16 bits
  85. Compression mode                         : Lossy
  86. Stream size                              : 570 MiB (2%)
  87. Title                                    : Iron.Man.2.2010.2160p.US.BluRay.x264.8bit.SDR.DTS-HD.MA.TrueHD.7.1.Atmos-SWTYBLZ
  88. Language                                 : English
  89. Service kind                             : Complete Main
  90. Default                                  : No
  91. Forced                                   : No

  92. Text #1
  93. ID                                       : 5
  94. Format                                   : UTF-8
  95. Codec ID                                 : S_TEXT/UTF8
  96. Codec ID/Info                            : UTF-8 Plain Text
  97. Duration                                 : 2 h 4 min
  98. Bit rate                                 : 65 b/s
  99. Count of elements                        : 1523
  100. Stream size                              : 59.2 KiB (0%)
  101. Title                                    : English-SRT
  102. Language                                 : English
  103. Default                                  : Yes
  104. Forced                                   : No

  105. Text #2
  106. ID                                       : 6
  107. Format                                   : PGS
  108. Muxing mode                              : zlib
  109. Codec ID                                 : S_HDMV/PGS
  110. Codec ID/Info                            : Picture based subtitle format used on BDs/HD-DVDs
  111. Duration                                 : 2 h 4 min
  112. Bit rate                                 : 39.3 kb/s
  113. Count of elements                        : 3052
  114. Stream size                              : 34.9 MiB (0%)
  115. Title                                    : English
  116. Language                                 : English
  117. Default                                  : No
  118. Forced                                   : No

  119. Text #3
  120. ID                                       : 7
  121. Format                                   : PGS
  122. Muxing mode                              : zlib
  123. Codec ID                                 : S_HDMV/PGS
  124. Codec ID/Info                            : Picture based subtitle format used on BDs/HD-DVDs
  125. Duration                                 : 2 h 4 min
  126. Bit rate                                 : 53.1 kb/s
  127. Count of elements                        : 3440
  128. Stream size                              : 47.2 MiB (0%)
  129. Title                                    : English-SDH-PGS
  130. Language                                 : English
  131. Default                                  : No
  132. Forced                                   : No

  133. Text #4
  134. ID                                       : 8
  135. Format                                   : PGS
  136. Muxing mode                              : zlib
  137. Codec ID                                 : S_HDMV/PGS
  138. Codec ID/Info                            : Picture based subtitle format used on BDs/HD-DVDs
  139. Duration                                 : 2 h 4 min
  140. Bit rate                                 : 43.3 kb/s
  141. Count of elements                        : 3090
  142. Stream size                              : 38.4 MiB (0%)
  143. Title                                    : French-PGS
  144. Language                                 : French
  145. Default                                  : No
  146. Forced                                   : No

  147. Text #5
  148. ID                                       : 9
  149. Format                                   : PGS
  150. Muxing mode                              : zlib
  151. Codec ID                                 : S_HDMV/PGS
  152. Codec ID/Info                            : Picture based subtitle format used on BDs/HD-DVDs
  153. Duration                                 : 2 h 4 min
  154. Bit rate                                 : 33.7 kb/s
  155. Count of elements                        : 3216
  156. Stream size                              : 29.9 MiB (0%)
  157. Title                                    : French-PGS
  158. Language                                 : French
  159. Default                                  : No
  160. Forced                                   : No

  161. Text #6
  162. ID                                       : 10
  163. Format                                   : PGS
  164. Muxing mode                              : zlib
  165. Codec ID                                 : S_HDMV/PGS
  166. Codec ID/Info                            : Picture based subtitle format used on BDs/HD-DVDs
  167. Duration                                 : 2 h 4 min
  168. Bit rate                                 : 41.4 kb/s
  169. Count of elements                        : 2926
  170. Stream size                              : 36.8 MiB (0%)
  171. Title                                    : Italian-PGS
  172. Language                                 : Italian
  173. Default                                  : No
  174. Forced                                   : No

  175. Text #7
  176. ID                                       : 11
  177. Format                                   : PGS
  178. Muxing mode                              : zlib
  179. Codec ID                                 : S_HDMV/PGS
  180. Codec ID/Info                            : Picture based subtitle format used on BDs/HD-DVDs
  181. Duration                                 : 2 h 4 min
  182. Bit rate                                 : 26.3 kb/s
  183. Count of elements                        : 3124
  184. Stream size                              : 23.3 MiB (0%)
  185. Title                                    : Japanese-PGS
  186. Language                                 : Japanese
  187. Default                                  : No
  188. Forced                                   : No

  189. Text #8
  190. ID                                       : 12
  191. Format                                   : PGS
  192. Muxing mode                              : zlib
  193. Codec ID                                 : S_HDMV/PGS
  194. Codec ID/Info                            : Picture based subtitle format used on BDs/HD-DVDs
  195. Duration                                 : 2 h 4 min
  196. Bit rate                                 : 33.4 kb/s
  197. Count of elements                        : 2896
  198. Stream size                              : 29.6 MiB (0%)
  199. Title                                    : Norwegian-PGS
  200. Language                                 : Norwegian
  201. Default                                  : No
  202. Forced                                   : No

  203. Text #9
  204. ID                                       : 13
  205. Format                                   : PGS
  206. Muxing mode                              : zlib
  207. Codec ID                                 : S_HDMV/PGS
  208. Codec ID/Info                            : Picture based subtitle format used on BDs/HD-DVDs
  209. Duration                                 : 2 h 4 min
  210. Bit rate                                 : 36.2 kb/s
  211. Count of elements                        : 3092
  212. Stream size                              : 32.3 MiB (0%)
  213. Title                                    : Spanish-PGS
  214. Language                                 : Spanish
  215. Default                                  : No
  216. Forced                                   : No

  217. Text #10
  218. ID                                       : 14
  219. Format                                   : PGS
  220. Muxing mode                              : zlib
  221. Codec ID                                 : S_HDMV/PGS
  222. Codec ID/Info                            : Picture based subtitle format used on BDs/HD-DVDs
  223. Duration                                 : 2 h 4 min
  224. Bit rate                                 : 39.8 kb/s
  225. Count of elements                        : 2442
  226. Stream size                              : 35.3 MiB (0%)
  227. Title                                    : Swedish
  228. Language                                 : Swedish
  229. Default                                  : No
  230. Forced                                   : No

  231. Menu
  232. 00:00:00.000                             : en:Chapter 01
  233. 00:05:01.801                             : en:Chapter 02
  234. 00:11:05.081                             : en:Chapter 03
  235. 00:17:57.451                             : en:Chapter 04
  236. 00:25:50.507                             : en:Chapter 05
  237. 00:30:24.281                             : en:Chapter 06
  238. 00:37:30.498                             : en:Chapter 07
  239. 00:43:57.134                             : en:Chapter 08
  240. 00:51:36.844                             : en:Chapter 09
  241. 01:00:08.021                             : en:Chapter 10
  242. 01:06:59.015                             : en:Chapter 11
  243. 01:15:58.262                             : en:Chapter 12
  244. 01:21:10.783                             : en:Chapter 13
  245. 01:30:31.051                             : en:Chapter 14
  246. 01:38:46.838                             : en:Chapter 15
  247. 01:45:39.291                             : en:Chapter 16
  248. 01:54:14.848                             : en:Chapter 17
复制代码

钢铁侠2/钢铁人2 Iron.Man.2.2010.2160p.US.BluRay.x264.8bit.SDR.DTS-HD.MA.TrueHD.7.1.Atmos-SWTYBLZ 32.49GB-2.png 钢铁侠2/钢铁人2 Iron.Man.2.2010.2160p.US.BluRay.x264.8bit.SDR.DTS-HD.MA.TrueHD.7.1.Atmos-SWTYBLZ 32.49GB-3.png 钢铁侠2/钢铁人2 Iron.Man.2.2010.2160p.US.BluRay.x264.8bit.SDR.DTS-HD.MA.TrueHD.7.1.Atmos-SWTYBLZ 32.49GB-4.png 钢铁侠2/钢铁人2 Iron.Man.2.2010.2160p.US.BluRay.x264.8bit.SDR.DTS-HD.MA.TrueHD.7.1.Atmos-SWTYBLZ 32.49GB-5.png 钢铁侠2/钢铁人2 Iron.Man.2.2010.2160p.US.BluRay.x264.8bit.SDR.DTS-HD.MA.TrueHD.7.1.Atmos-SWTYBLZ 32.49GB-6.png 钢铁侠2/钢铁人2 Iron.Man.2.2010.2160p.US.BluRay.x264.8bit.SDR.DTS-HD.MA.TrueHD.7.1.Atmos-SWTYBLZ 32.49GB-7.png






开通VIP免费下载本站所有资源---点这里
新手必看:资源下载、资源播放、字幕使用、等常见问题---点这里
回复

使用道具 举报

发表于 2019-8-10 16:06:18 | 显示全部楼层
谢谢啦啦啦啦
开通VIP免费下载本站所有资源---点这里
新手必看:资源下载、资源播放、字幕使用、等常见问题---点这里
回复 支持 反对

使用道具 举报

发表于 2019-8-10 18:47:17 | 显示全部楼层

这个帖子不回对不起自己!我想我是一天也不能离开蓝光电影网
开通VIP免费下载本站所有资源---点这里
新手必看:资源下载、资源播放、字幕使用、等常见问题---点这里
回复 支持 反对

使用道具 举报

发表于 2019-8-10 22:31:06 | 显示全部楼层
每天盖一层 健康没一天
开通VIP免费下载本站所有资源---点这里
新手必看:资源下载、资源播放、字幕使用、等常见问题---点这里
回复 支持 反对

使用道具 举报

发表于 2019-8-10 22:31:47 | 显示全部楼层
谢谢啦啦啦啦啦
开通VIP免费下载本站所有资源---点这里
新手必看:资源下载、资源播放、字幕使用、等常见问题---点这里
回复 支持 反对

使用道具 举报

发表于 2019-8-10 22:38:27 | 显示全部楼层

楼主太厉害了!楼主,电影应该很好看我觉得蓝光电影网真是个好地方!
开通VIP免费下载本站所有资源---点这里
新手必看:资源下载、资源播放、字幕使用、等常见问题---点这里
回复 支持 反对

使用道具 举报

发表于 2019-8-10 22:56:19 | 显示全部楼层
铁甲奇侠第二部
开通VIP免费下载本站所有资源---点这里
新手必看:资源下载、资源播放、字幕使用、等常见问题---点这里
回复 支持 反对

使用道具 举报

发表于 2019-8-12 10:11:57 | 显示全部楼层

这东西我收了!谢谢楼主!蓝光电影网真好!
开通VIP免费下载本站所有资源---点这里
新手必看:资源下载、资源播放、字幕使用、等常见问题---点这里
回复 支持 反对

使用道具 举报

发表于 2019-8-12 20:04:54 | 显示全部楼层
楼主发贴辛苦了,谢谢楼主分享!我觉得蓝光电影网是注册对了!
开通VIP免费下载本站所有资源---点这里
新手必看:资源下载、资源播放、字幕使用、等常见问题---点这里
回复 支持 反对

使用道具 举报

懒得打字嘛,点击右侧快捷回复 【右侧内容,后台自定义】
您需要登录后才可以回帖 登录 | 立即加入

本版积分规则

现在加入蓝光电影网,注册一个账号

QQ| 手机版|小黑屋| 蓝光电影网 |网站地图

Copyright © 2015-2019 Comsenz Inc.  Template by 蓝光电影网 All Rights Reserved.

Powered by 蓝光电影网 X3.4

特别声明:本站所有资源均由网上收集而来,版权归原影音公司所有,如果侵犯了你的权益,请通知我们,我们会及时删除侵权内容.

快速回复 返回顶部 返回列表